Зарубежные фильмы Комедия

Ангелы Чарли 2: Только вперед / Charlie’s Angels: Full Throttle (2003) BDRip 720p | D



Информация о фильме
Название: Ангелы Чарли 2: Только вперед
Оригинальное название: Charlie's Angels: Full Throttle
Год выхода: 2003
Жанр: боевик, комедия, криминал, приключения
Режиссер: МакДжи / McG

В ролях: Кэмерон Диаз, Дрю Бэрримор, Люси Лью, Берни Мак, Криспин Гловер, ДжастинТеру, Роберт Патрик, Деми Мур, Родриго Санторо, Шайа ЛаБаф

О фильме:
Самое мощное секретное оружие Америки снова в действии! Ангелы Чарли готовы к новым подвигам! На сей раз главный злодей практически неотразим. Он красив, сексапилен, все умеет — серфинг, мотогонки.
Девчонкам придется нелегко, им нужно найти похищенные титановые кольца. Это не простые украшения, а особые носители информации, на которых микротекстом выгравированы имена и адреса всех участников федеральной программы защиты свидетелей… Доброе утро, Ангелы! За работу!

Страна: США
Продолжительность: 01:47:06
Перевод: Профессиональный (полное дублирование)

Файл
Кодек: x.264
Качество: BDRip 720p [Charlies.Angels-Full.Throttle.2003.BDRemux]
Видео: 1280×534, [email protected], ~5174 Kbps, 23.976 fps, (0.316 Bits/(Pixel*Frame))
Аудио: 48000 Hz, 6 channels, 640 Kbps
Субтитры: SRT — русские (форсированные, полные), английские

  • Детям до 13 лет просмотр не желателен

    M/I
    General
    Unique ID : 224979916634455784731929661679910759579 (0xA9418E4B15BA3C8AA61E23F2CBEBAC9B)
    Complete name : F:FILMSАнгелы Чарли 2.(2003).BLU-RAY_720p.[-=DoMiNo=-].mkv
    Format : Matroska
    Format version : Version 4 / Version 2
    File size : 4.35 GiB
    Duration : 1 h 47 min
    Overall bit rate : 5 816 kb/s
    Movie name : Ангелы Чарли 2: Только вперед
    Deion : Самое мощное секретное оружие Америки снова в действии! Ангелы Чарли готовы к новым подвигам! На сей раз главный злодей практически неотразим. Он красив, сексапилен, все умеет — серфинг, мотогонки.Девчонкам придется нелегко, им нужно найти похищенные титановые кольца. Это не простые украшения, а особые носители информации, на которых микротекстом выгравированы имена и адреса всех участников федеральной программы защиты свидетелей… Доброе утро, Ангелы! За работу!
    Writing application : XviD4PSP 7.0.435 DAILY
    Writing library : Lavf57.71.100
    ErrorDetectionType : Per level 1
    Attachments : poster.jpg
    COMPOSER : Эд Ширмёр
    COUNTRY : США
    DATE : 2003
    DIRECTOR : МакДжи
    ENCODING_INFO : MATROSKA,WEBM > MKV 720p / H264 > X264 VBR-2P 5174kbps Пользовательский / AC3 > COPY Безопасное
    GENRE : боевик, комедия, криминал, приключения
    HD_VIDEO : 1
    IMDB_RATING : 4.80
    ITUNEXTC : mpaa|PG-13|300|
    Language : und
    MEDIA_TYPE : 9
    ORIGINAL_TITLE : Charlie's Angels: Full Throttle
    PRODUCER : Дрю Бэрримор, Леонард Голдберг, Нэнси Джувонен, Патрик Краули, Аманда Голдберг, Стефани Сэвадж, Дженно Топпинг
    RATING : 6.114
    WRITER : Джон Огаст, Иван Гофф, Бен Робертс, Кормак Уибберли, Мэриэнн Уибберли

    Video
    ID : 1
    Format : AVC
    Format/Info : Advanced Video Codec
    Format profile : [email protected]
    Format settings : CABAC / 9 Ref Frames
    Format settings, CABAC : Yes
    Format settings, ReFrames : 9 frames
    Codec ID : V_MPEG4/ISO/AVC
    Duration : 1 h 47 min
    Bit rate : 5 174 kb/s
    Width : 1 280 pixels
    Height : 534 pixels
    Display aspect ratio : 2.40:1
    Frame rate mode : Constant
    Frame rate : 23.976 (24000/1001) FPS
    Color space : YUV
    Chroma subsampling : 4:2:0
    Bit depth : 8 bits
    Scan type : Progressive
    Bits/(Pixel*Frame) : 0.316
    Stream size : 3.79 GiB (87%)
    Title : BLU-RAY_720p_RIP_BY_-=DoMiNo=-
    Writing library : x264 core 155 r2893M b00bcaf
    Encoding settings : cabac=1 / ref=9 / deblock=1:-3:-3 / analyse=0x3:0x133 / me=umh / subme=10 / psy=1 / psy_rd=1.00:0.10 / mixed_ref=1 / me_range=32 / chroma_me=1 / trellis=2 / 8x8dct=1 / cqm=0 / deadzone=21,11 / fast_pskip=1 / chroma_qp_offset=-3 / threads=5 / lookahead_threads=1 / sliced_threads=0 / nr=0 / decimate=1 / interlaced=0 / bluray_compat=0 / constrained_intra=0 / bframes=10 / b_pyramid=2 / b_adapt=2 / b_bias=0 / direct=3 / weightb=1 / open_gop=0 / weightp=2 / keyint=240 / keyint_min=24 / scenecut=40 / intra_refresh=0 / rc_lookahead=60 / rc=2pass / mbtree=1 / bitrate=5174 / ratetol=1.0 / qcomp=0.60 / qpmin=0 / qpmax=69 / qpstep=4 / cplxblur=20.0 / qblur=0.5 / ip_ratio=1.40 / aq=1:1.00
    Language : English
    Default : Yes
    Forced : No

    Audio
    ID : 2
    Format : AC-3
    Format/Info : Audio Coding 3
    Codec ID : A_AC3
    Duration : 1 h 47 min
    Bit rate mode : Constant
    Bit rate : 640 kb/s
    Channel(s) : 6 channels
    Channel positions : Front: L C R, Side: L R, LFE
    Sampling rate : 48.0 kHz
    Frame rate : 31.250 FPS (1536 SPF)
    Bit depth : 16 bits
    Compression mode : Lossy
    Stream size : 490 MiB (11%)
    Title : DUB
    Language : Russian
    Service kind : Complete Main
    Default : Yes
    Forced : No

    Text #1
    ID : 3
    Format : UTF-8
    Codec ID : S_TEXT/UTF8
    Codec ID/Info : UTF-8 Plain Text
    Title : Forced_RUS
    Language : Russian
    Default : Yes
    Forced : No

    Text #2
    ID : 4
    Format : UTF-8
    Codec ID : S_TEXT/UTF8
    Codec ID/Info : UTF-8 Plain Text
    Title : RUS
    Language : Russian
    Default : No
    Forced : No

    Text #3
    ID : 5
    Format : UTF-8
    Codec ID : S_TEXT/UTF8
    Codec ID/Info : UTF-8 Plain Text
    Title : ENG
    Language : English
    Default : No
    Forced : No

    Menu
    00:00:00.000 : :Chapter 01
    00:09:06.295 : :Chapter 02
    00:13:05.493 : :Chapter 03
    00:19:37.342 : :Chapter 04
    00:29:12.917 : :Chapter 05
    00:36:28.769 : :Chapter 06
    00:46:09.725 : :Chapter 07
    00:51:52.943 : :Chapter 08
    00:56:59.916 : :Chapter 09
    01:03:13.706 : :Chapter 10
    01:06:59.223 : :Chapter 11
    01:13:53.262 : :Chapter 12
    01:19:54.164 : :Chapter 13
    01:26:50.663 : :Chapter 14
    01:31:32.778 : :Chapter 15
    01:36:27.990 : :Chapter 16
    Скриншоты


  • Скачать Angely_CHarli_2.2003.BLU-RAY_720p.-DoMiNo-.mkv.torrent

    просмотры: 0

    Post Comment