Детектив Зарубежные фильмы

Хэвенхёрст / Havenhurst (2016) WEB-DL 1080p | D, L1


Название: Хэвенхёрст
Оригинальное название: Havenhurst
Год выхода: 2016
Страна: США
Студия: Protocol Entertainment, Twisted Pictures, Parismony Pictures
Продолжительность: 01:24:45
Жанр: ужасы, триллер, детектив

Режиссер: Эндрю С. Эрин
В ролях: Джули Бенц, Финола Флэнаган, Белль Шусе, Джош Стэмберг, Даниэль Харрис, Дендри Тейлор, Тоби Хасс, Дуглас Тейт, Мэтт Ласки, Дженнифер Бланк, …

Перевод:
— Профессиональный (дублированный) Мосфильм-мастер
— Любительский (одноголосый, закадровый) BadBajo

О фильме: Джеки расследует загадочное исчезновение лучшей подруги. Следы ведут в старинное поместье Хэвенхёрст в самом сердце Нью-Йорка. Его стены скрывают много тайн. Требования к постояльцам строгие: сюда очень сложно попасть. Но ещё сложнее — отсюда выбраться…

Кодек: MPEG4/ISO/AVC
Качество: WEB-DL 1080p
Видео: 1912×796, 4525 kbps, 23,976 fps
Аудио #1: AC-3, 2 ch, 192 kbps (Rus) — Dub Мосфильм-мастер (IVI)
Аудио #2: AC-3, 6 ch, 384 kbps (Rus) — VO BadBajo (Важенин)
Аудио #3: AC-3, 6 ch, 384 kbps (Eng)
Субтитры: Английские

MediaInfo
Общее
Уникальный идентификатор : 232537251446177762021204174025451654514 (0xAEF10BAAC666BDE28694187667DC4D72)
Полное имя : C:TorrentХэвенхёрст (Havenhurst) 2016 WEB-DL 1080p D L1.mkv
Формат : Matroska
Версия формата : Version 2
Размер файла : 3,31 Гбайт
Продолжительность : 1 ч. 24 м.
Общий поток : 5593 Кбит/сек
Дата кодирования : UTC 2018-01-01 16:39:09
Программа кодирования : mkvmerge v4.0.0 ('The Stars were mine') сборка от Jun 6 2010 16:18:42
Библиотека кодирования : libebml v1.0.0 + libmatroska v1.0.0

Видео
Идентификатор : 1
Формат : AVC
Формат/Информация : Advanced Video Codec
Профиль формата : [email protected]
Параметр CABAC формата : Да
Параметр ReFrames формата : 5 кадров
Идентификатор кодека : V_MPEG4/ISO/AVC
Продолжительность : 1 ч. 24 м.
Битрейт : 4521 Кбит/сек
Ширина : 1912 пикселей
Высота : 796 пикселей
Соотношение сторон : 2,40:1
Режим частоты кадров : Постоянный
Частота кадров : 23,976 (24000/1001) кадра/сек
Цветовое пространство : YUV
Субдискретизация насыщенности : 4:2:0
Битовая глубина : 8 бит
Тип развёртки : Прогрессивная
Бит/(Пиксели*Кадры) : 0.124
Размер потока : 2,68 Гбайт (81%)
Язык : English
Default : Нет
Forced : Нет
Цветовой диапазон : Limited
Основные цвета : BT.709
Характеристики трансфера : BT.709
Коэффициенты матрицы : BT.709

Аудио #1
Идентификатор : 2
Формат : AC-3
Формат/Информация : Audio Coding 3
Расширение режима : CM (complete main)
Параметр Endianness формата : Big
Идентификатор кодека : A_AC3
Продолжительность : 1 ч. 24 м.
Вид битрейта : Постоянный
Битрейт : 192 Кбит/сек
Каналы : 2 канала
Расположение каналов : Front: L R
Частота : 48,0 КГц
Частота кадров : 31,250 кадров/сек (1536 spf)
Метод сжатия : С потерями
Размер потока : 116 Мбайт (3%)
Заголовок : Dub Мосфильм-мастер (online movies — IVI)
Язык : Russian
Default : Нет
Forced : Нет

Аудио #2
Идентификатор : 3
Формат : AC-3
Формат/Информация : Audio Coding 3
Расширение режима : CM (complete main)
Параметр Endianness формата : Big
Идентификатор кодека : A_AC3
Продолжительность : 1 ч. 24 м.
Вид битрейта : Постоянный
Битрейт : 384 Кбит/сек
Каналы : 6 каналов
Расположение каналов : Front: L C R, Side: L R, LFE
Частота : 48,0 КГц
Частота кадров : 31,250 кадров/сек (1536 spf)
Метод сжатия : С потерями
Размер потока : 233 Мбайт (7%)
Заголовок : VO BadBajo (Важенин)
Язык : Russian
Default : Нет
Forced : Нет

Аудио #3
Идентификатор : 4
Формат : AC-3
Формат/Информация : Audio Coding 3
Расширение режима : CM (complete main)
Параметр Endianness формата : Big
Идентификатор кодека : A_AC3
Продолжительность : 1 ч. 24 м.
Вид битрейта : Постоянный
Битрейт : 384 Кбит/сек
Каналы : 6 каналов
Расположение каналов : Front: L C R, Side: L R, LFE
Частота : 48,0 КГц
Частота кадров : 31,250 кадров/сек (1536 spf)
Метод сжатия : С потерями
Размер потока : 233 Мбайт (7%)
Язык : English
Default : Нет
Forced : Нет

Текст
Идентификатор : 5
Формат : UTF-8
Идентификатор кодека : S_TEXT/UTF8
Идентификатор кодека/Информация : UTF-8 Plain Text
Язык : English
Default : Нет
Forced : Нет

Меню
00:00:00.000 : en:Chapter 1
00:10:14.000 : en:Chapter 2
00:20:25.000 : en:Chapter 3
00:30:17.000 : en:Chapter 4
00:40:02.000 : en:Chapter 5
00:50:23.000 : en:Chapter 6
01:00:24.000 : en:Chapter 7
01:09:58.000 : en:Chapter 8
01:19:24.000 : en:Chapter 9



Скачать Hjevenhjorst_Havenhurst_2016_WEB-DL_1080p_D_L1..torrent

просмотры: 1

Post Comment