Военный Зарубежные фильмы

Дюнкерк / Dunkirk (2017) BDRip | IMAX | Лицензия

«Событие, которое изменило мир»

Информация о фильме
Название: Дюнкерк
Оригинальное название: Dunkirk
Год выхода: 2017
Жанр: Военный, драма, история
Режиссер: Кристофер Нолан
В ролях: Финн Уайтхед, Том Глинн-Карни, Джек Лауден, Гарри Стайлс, Анейрин Барнард, Джеймс Д`Арси, Барри Кеоган, Кеннет Брана, Киллиан Мёрфи, Марк Райлэнс

О фильме:
Фильм расскажет историю чудесного спасения более трехсот тысяч солдат в ходе Дюнкеркской операции, имевшей место в начале Второй мировой войны. События начинаются с окружения сотен тысяч британских и союзных войск силами противника. Пойманные в ловушку на пляже, и находясь спиной к морю, они сталкиваются лицом к лицу с неразрешимой ситуацией, тем временем как тиски противника сжимаются все сильнее и сильнее.

Страна: Великобритания, Нидерланды, Франция, США
Студия: Canal+ [fr], Ciné, Dombey Street Productions, Kaap Holland Film, RatPac-Dune Entertainment, Syncopy, Warner Bros. Pictures
Продолжительность: 01:46:38
Перевод: Дублированный | Blu-ray CEE

Файл
Качество: BDRip (исх. DUNKIRK_EUR_BLUEBIRD)
Кодек: XviD
Видео: 720×400 (16:9), 23,976 fps, XviD ~ 2017 kbps avg, 0.292 bit/pixel
Аудио: 48 kHz, AC3, 6 ch, ~448.00 kbps avg | русский | Blu-ray CEE
Аудио: 48 kHz, AC3, 6 ch, ~448.00 kbps avg | английский | Оригинал

Субтитры: Русские (вшитые, форсированные)

Инфо-файл
Общее
Полное имя : Dunkirk.2017.D.BDRip.2.18Gb.avi
Формат : AVI
Формат/Информация : Audio Video Interleave
Профиль формата : OpenDML
Размер файла : 2,18 Гбайт
Продолжительность : 1 ч. 46 м.
Общий поток : 2931 Кбит/сек
Программа кодирования : VirtualDubMod 1.5.10.3 (build 2550/release)
Библиотека кодирования : VirtualDubMod build 2550/release

Видео
Идентификатор : 0
Формат : MPEG-4 Visual
Профиль формата : Advanced [email protected]
Параметр BVOP формата : 2
Параметр QPel формата : Нет
Параметр GMC формата : Без точки перехода
Параметр матрицы формата : Выборочная
Идентификатор кодека : XVID
Идентификатор кодека/Подсказка : XviD
Продолжительность : 1 ч. 46 м.
Битрейт : 2017 Кбит/сек
Ширина : 720 пикселей
Высота : 400 пикселей
Соотношение сторон : 16:9
Частота кадров : 23,976 (24000/1001) кадра/сек
Цветовое пространство : YUV
Субдискретизация насыщенности : 4:2:0
Битовая глубина : 8 бит
Тип развёртки : Прогрессивная
Метод сжатия : С потерями
Бит/(Пиксели*Кадры) : 0.292
Размер потока : 1,50 Гбайт (69%)
Библиотека кодирования : XviD 73

Аудио #1
Идентификатор : 1
Формат : AC-3
Формат/Информация : Audio Coding 3
Параметр Endianness формата : Big
Идентификатор кодека : 2000
Продолжительность : 1 ч. 46 м.
Вид битрейта : Постоянный
Битрейт : 448 Кбит/сек
Каналы : 6 каналов
Расположение каналов : Front: L C R, Side: L R, LFE
Частота : 48,0 КГц
Частота кадров : 31,250 кадров/сек (1536 spf)
Битовая глубина : 16 бит
Метод сжатия : С потерями
Размер потока : 342 Мбайт (15%)
Выравнивание : Разделение по промежуткам
Продолжительность промежутка : 42 мс. (1,00 видеокадр)
Время предзагрузки промежутка : 500 мс.

Аудио #2
Идентификатор : 2
Формат : AC-3
Формат/Информация : Audio Coding 3
Параметр Endianness формата : Big
Идентификатор кодека : 2000
Продолжительность : 1 ч. 46 м.
Вид битрейта : Постоянный
Битрейт : 448 Кбит/сек
Каналы : 6 каналов
Расположение каналов : Front: L C R, Side: L R, LFE
Частота : 48,0 КГц
Частота кадров : 31,250 кадров/сек (1536 spf)
Битовая глубина : 16 бит
Метод сжатия : С потерями
Размер потока : 342 Мбайт (15%)
Выравнивание : Разделение по промежуткам
Продолжительность промежутка : 42 мс. (1,00 видеокадр)
Время предзагрузки промежутка : 500 мс.

Скриншоты


Скачать Dunkirk.2017.D.BDRip.2.18Gb.avi.torrent

просмотры: 0

Post Comment