Биография Зарубежные фильмы

Самурай 3: Поединок на острове / Miyamoto Musashi kanketsuhen: kettô Ganryûjima (1956) BDRemux 1080р | P, A

Информация о фильме
Название: Самурай 3: Поединок на острове
Оригинальное название: Miyamoto Musashi kanketsuhen: kettô Ganryûjima
Год выхода: 1956
Жанр: боевик, драма, приключения, биография, история
Режиссер: Хироси Инагаки
В ролях: Тосиро Мифунэ, Кодзи Цурута, Каору Ятигуса, Мичико Сага, Марико Окада, Такаси Симура, Минору Чиаки, Такамару Сасаки, Дайскэ Като, Харуо Танака

Описание: Бескомпромиссное и завораживающее завершение летописи доблестного пути Миямото Мусаси. Именитый защитник добра и справедливости намерен уйти на покой, но на горизонте вновь появляется тень его заклятого врага Сасаки Кодзиро. Тучи сгущаются над островом Ганрью, где великим самураям суждено сойтись в решающей битве…

Страна: Япония
Продолжительность: 01:44:49
Перевод 2: Авторский (одноголосый закадровый) Ю. Сербин
Субтитры: русские, английские
Оригинальная аудиодорожка: японский

Файл
Качество: BDRemux 1080р
Видео: AVC / 1920×1080 / 16:9 / 23.976fps / 23991 kbps / [email protected]
Аудио 1: Rus / AC3 / 48.0 KHz / 2ch. / 192 kbps / MVO
Аудио 2: Rus / AC3 / 48.0 KHz / 2ch. / 192 kbps / AVO / Ю. Сербин
Аудио 3: Jap / FLAC / 48.0 KHz / 1ch. / 569 kbps / 24 bit

Скриншоты

MediaInfo
Общее
Уникальный идентификатор : 213876932024665732789505360086877053434 (0xA0E732E33EF5432AB642C223BFABA1FA)
Полное имя : Samurai.III.Duel.at Ganryu.Island.1956.BDRemux.1080p.mkv
Формат : Matroska
Версия формата : Version 4 / Version 2
Размер файла : 18,2 Гбайт
Продолжительность : 1 ч. 44 м.
Режим общего битрейта : Переменный
Общий поток : 24,9 Мбит/сек
Название фильма : Samurai.III.Duel.at Ganryu.Island.1956.BDRemux.1080p-porvaliparus
Дата кодирования : UTC 2017-05-16 07:51:47
Программа кодирования : mkvmerge v11.0.0 ('Alive') 64bit
Библиотека кодирования : libebml v1.3.4 + libmatroska v1.4.5

Видео
Идентификатор : 1
Формат : AVC
Формат/Информация : Advanced Video Codec
Профиль формата : [email protected]
Параметр CABAC формата : Да
Параметр ReFrames формата : 4 кадра
Идентификатор кодека : V_MPEG4/ISO/AVC
Продолжительность : 1 ч. 44 м.
Вид битрейта : Переменный
Битрейт : 23,9 Мбит/сек
Максимальный битрейт : 37,0 Мбит/сек
Ширина : 1920 пикселей
Высота : 1080 пикселей
Соотношение сторон : 16:9
Режим частоты кадров : Постоянный
Частота кадров : 23,976 (24000/1001) кадра/сек
Цветовое пространство : YUV
Субдискретизация насыщенности : 4:2:0
Битовая глубина : 8 бит
Тип развёртки : Прогрессивная
Бит/(Пиксели*Кадры) : 0.481
Размер потока : 17,5 Гбайт (96%)
Заголовок : Samurai.III.Duel.at Ganryu.Island.1956.BDRemux.1080p
Default : Да
Forced : Нет

Аудио #1
Идентификатор : 2
Формат : AC-3
Формат/Информация : Audio Coding 3
Параметр Endianness формата : Big
Идентификатор кодека : A_AC3
Продолжительность : 1 ч. 44 м.
Вид битрейта : Постоянный
Битрейт : 192 Кбит/сек
Каналы : 2 канала
Расположение каналов : Front: L R
Частота : 48,0 КГц
Частота кадров : 31,250 кадров/сек (1536 spf)
Битовая глубина : 16 бит
Метод сжатия : С потерями
Размер потока : 144 Мбайт (1%)
Заголовок : MVO
Язык : Russian
Default : Да
Forced : Нет

Аудио #2
Идентификатор : 3
Формат : AC-3
Формат/Информация : Audio Coding 3
Параметр Endianness формата : Big
Идентификатор кодека : A_AC3
Продолжительность : 1 ч. 44 м.
Вид битрейта : Постоянный
Битрейт : 192 Кбит/сек
Каналы : 2 канала
Расположение каналов : Front: L R
Частота : 48,0 КГц
Частота кадров : 31,250 кадров/сек (1536 spf)
Битовая глубина : 16 бит
Метод сжатия : С потерями
Размер потока : 144 Мбайт (1%)
Заголовок : AVO [Ю. Сербин]
Язык : Russian
Default : Нет
Forced : Нет

Аудио #3
Идентификатор : 4
Формат : FLAC
Формат/Информация : Free Lossless Audio Codec
Идентификатор кодека : A_FLAC
Продолжительность : 1 ч. 44 м.
Вид битрейта : Переменный
Битрейт : 569 Кбит/сек
Каналы : 1 канал
Расположение каналов : Front: C
Частота : 48,0 КГц
Частота кадров : 11,719 кадров/сек (4096 spf)
Битовая глубина : 24 бит
Размер потока : 426 Мбайт (2%)
Библиотека кодирования : libFLAC 1.2.1 (UTC 2007-09-17)
Язык : Japanese
Default : Нет
Forced : Нет

Текст #1
Идентификатор : 5
Формат : UTF-8
Идентификатор кодека : S_TEXT/UTF8
Идентификатор кодека/Информация : UTF-8 Plain Text
Продолжительность : 1 ч. 44 м.
Битрейт : 52 бит/сек
ElementCount : 722
Размер потока : 39,8 Кбайт (0%)
Язык : Russian
Default : Нет
Forced : Нет

Текст #2
Идентификатор : 6
Формат : UTF-8
Идентификатор кодека : S_TEXT/UTF8
Идентификатор кодека/Информация : UTF-8 Plain Text
Продолжительность : 1 ч. 44 м.
Битрейт : 30 бит/сек
ElementCount : 899
Размер потока : 23,0 Кбайт (0%)
Язык : English
Default : Нет
Forced : Нет

Меню
00:00:00.000 : en:00:00:00.000
00:05:14.189 : en:00:05:14.189
00:12:13.316 : en:00:12:13.316
00:17:45.523 : en:00:17:45.523
00:19:25.039 : en:00:19:25.039
00:22:52.830 : en:00:22:52.830
00:23:54.933 : en:00:23:54.933
00:25:36.744 : en:00:25:36.744
00:30:33.540 : en:00:30:33.540
00:33:08.904 : en:00:33:08.904
00:37:09.519 : en:00:37:09.519
00:39:04.801 : en:00:39:04.801
00:41:00.124 : en:00:41:00.124
00:45:01.157 : en:00:45:01.157
00:48:26.070 : en:00:48:26.070
00:58:02.396 : en:00:58:02.396
01:02:28.828 : en:01:02:28.828
01:08:50.084 : en:01:08:50.084
01:18:57.983 : en:01:18:57.983
01:21:27.466 : en:01:21:27.466
01:25:39.384 : en:01:25:39.384
01:28:09.701 : en:01:28:09.701
01:33:28.853 : en:01:33:28.853


Скачать Samurai.III.Duel.at_Ganryu.Island.1956.BDRemux..torrent

просмотры: 1

Post Comment