Зарубежные фильмы Комедия

Новая рождественская сказка / Scrooged (1988) BDRip-AVC от ExKinoRay | P

Информация о фильме
Название: Новая рождественская сказка
Оригинальное название: Scrooged
Год выхода: 1988
Жанр: Фэнтези, драма, комедия
Режиссер: Ричард Доннер
В ролях: Билл Мюррей, Карен Аллен, Джон Форсайт, Джон Гловер, Боб Голдтуэйт, Дэвид Джохансен, Кэрол Кейн, Роберт Митчум, Николас Филлипс, Майкл Дж. Поллард

О фильме :
Наступило Рождество… Но, к сожалению, волшебная сила этого чудесного праздника не в силах растопить лед в сердцах некоторых абсолютно черствых и самодовольных личностей. К числу подобных неисправимых типов относится и герой этой картины — магнат Фрэнк Кросс.Он богат, всесилен и абсолютно равнодушен ко всему, кроме собственных денег. Кросс — владелец собственного телеканала, безжалостный и хладнокровный бизнесмен, с очень жестоким чувством юмора.В общем, Фрэнк — один из тех парней, которые запросто могут испортить вам замечательный праздник. Таких людей, понятное дело, надо воспитывать, и чем быстрей, тем лучше. Ради такого случая в игру включаются сверхъестественные силы.В рождественскую ночь перевоспитанием Фрэнка займутся специально подобранные для этого существа. А именно:призрак прошлого — веселый таксист из ада; призрак настоящего — современная, задорная фея без комплексов, использующая методы рукопашного боя и ужасный, немногословный посланник будущего, с черепом, вместо лица…

Выпущено: США, Paramount Pictures
Продолжительность: 01:40:56
Перевод: Профессиональный (многоголосый, закадровый) СТС

Файл
Формат: MKV
Качество: BDRip-AVC (BDRemux 1080p)
Видео: MPEG-4 AVC, 752×424, ~ 956 Кбит/с
Аудио: AAC-LC, 2 ch, ~ 76 Кбит/с
Субтитры: Русские, английские

MI
Общее
Уникальный идентификатор : 221582701007415742066029530571977089787 (0xA6B346A191848936ABE42A9A173D62FB)
Полное имя : D:MOVIESScrooged.1988.ExKinoRay.mkv
Формат : Matroska
Версия формата : Version 4 / Version 2
Размер файла : 747 Мбайт
Продолжительность : 1 ч. 40 м.
Общий поток : 1034 Кбит/сек
Дата кодирования : UTC 2017-12-31 12:34:08
Программа кодирования : mkvmerge v15.0.0 ('Duel with the Devil') 64-bit
Библиотека кодирования : libebml v1.3.5 + libmatroska v1.4.5

Видео
Идентификатор : 1
Формат : AVC
Формат/Информация : Advanced Video Codec
Профиль формата : [email protected]
Параметр CABAC формата : Да
Параметр RefFrames формата : 10 кадров
Идентификатор кодека : V_MPEG4/ISO/AVC
Продолжительность : 1 ч. 40 м.
Битрейт : 956 Кбит/сек
Ширина : 752 пикселя
Высота : 424 пикселя
Соотношение сторон : 16:9
Режим частоты кадров : Постоянный
Частота кадров : 23,976 (24000/1001) кадра/сек
Цветовое пространство : YUV
Субдискретизация насыщенности : 4:2:0
Битовая глубина : 8 бит
Тип развёртки : Прогрессивная
Бит/(Пиксели*Кадры) : 0.125
Размер потока : 690 Мбайт (92%)
Библиотека кодирования : x264 core 152 r2851 ba24899
Настройки программы : cabac=1 / ref=10 / deblock=1:2:-2 / analyse=0x3:0x133 / me=umh / subme=11 / psy=1 / psy_rd=1.00:0.10 / mixed_ref=1 / me_range=32 / chroma_me=1 / trellis=2 / 8x8dct=1 / cqm=0 / deadzone=21,11 / fast_pskip=0 / chroma_qp_offset=-3 / threads=6 / lookahead_threads=1 / sliced_threads=0 / nr=0 / decimate=0 / interlaced=0 / bluray_compat=0 / constrained_intra=0 / bframes=10 / b_pyramid=2 / b_adapt=2 / b_bias=0 / direct=3 / weightb=1 / open_gop=0 / weightp=2 / keyint=240 / keyint_min=23 / scenecut=40 / intra_refresh=0 / rc_lookahead=40 / rc=2pass / mbtree=0 / bitrate=956 / ratetol=1.0 / qcomp=0.60 / qpmin=0 / qpmax=69 / qpstep=4 / cplxblur=20.0 / qblur=0.5 / vbv_maxrate=50000 / vbv_bufsize=62500 / nal_hrd=none / filler=0 / ip_ratio=1.40 / pb_ratio=1.30 / aq=1:1.00
Default : Да
Forced : Нет

Аудио
Идентификатор : 2
Формат : AAC
Формат/Информация : Advanced Audio Codec
Профиль формата : LC
Идентификатор кодека : A_AAC
Продолжительность : 1 ч. 40 м.
Битрейт : 76,0 Кбит/сек
Каналы : 2 канала
Расположение каналов : Front: L R
Частота : 48,0 КГц
Частота кадров : 46,875 кадров/сек (1024 SPF)
Метод сжатия : С потерями
Задержка видео : 9 мс.
Размер потока : 54,9 Мбайт (7%)
Default : Да
Forced : Нет

Текст #1
Идентификатор : 3
Формат : UTF-8
Идентификатор кодека : S_TEXT/UTF8
Идентификатор кодека/Информация : UTF-8 Plain Text
Продолжительность : 1 ч. 35 м.
Битрейт : 108 бит/сек
ElementCount : 1444
Размер потока : 76,3 Кбайт (0%)
Язык : Russian
Default : Нет
Forced : Нет

Текст #2
Идентификатор : 4
Формат : UTF-8
Идентификатор кодека : S_TEXT/UTF8
Идентификатор кодека/Информация : UTF-8 Plain Text
Продолжительность : 1 ч. 34 м.
Битрейт : 82 бит/сек
ElementCount : 1678
Размер потока : 56,6 Кбайт (0%)
Язык : English
Default : Нет
Forced : Нет

Меню
00:00:00.000 : en:00:00:00.000
00:07:03.506 : en:00:07:03.506
00:16:59.685 : en:00:16:59.685
00:25:00.874 : en:00:25:00.874
00:31:44.569 : en:00:31:44.569
00:52:38.822 : en:00:52:38.822
00:58:20.497 : en:00:58:20.497
01:10:50.663 : en:01:10:50.663
01:14:38.599 : en:01:14:38.599
01:22:00.999 : en:01:22:00.999
01:24:36.822 : en:01:24:36.822
01:33:05.330 : en:01:33:05.330

Скриншоты


Релиз от:


Скачать Scrooged.1988.ExKinoRay.mkv.torrent

просмотры: 0

Post Comment