Зарубежные фильмы Криминал

Двойные неприятности / Double Trouble (1992) WEB-DLRip-AVC | P

Информация о фильме
Название: Двойные неприятности
Оригинальное название: Double Trouble
Год выпуска: 1992
Жанр: боевик, триллер, комедия, криминал
Режиссер: Джон Парагон
В ролях: Питер Пол (Peter Jade), Дэвид Пол (David Jade), Родди МакДауэлл (Philip Chamberlain), Дэвид Кэрредин (Mr. C), Стив Кэнэли (Kent), Трой Донахью (Leonard), Э.Дж. Джонсон (Danitra), Билл Муми (Bob), Джеймс Дуэн (Chief O'Brien), Коллин Бернсен (Whitney Regan), Тимоти Стэк (Albers), Боб Ивэн Коллинз (Rosehill)

О фильме:
Банда грабителей драгоценностей подставляет под подозрение братьев-близнецов, один из которых — полицейский, а второй — взломщик-рецидивист. Чтобы проучить обидчиков, они вынуждены стать партнерами.

Посреди зажигательных погонь и ураганной стрельбы Дэвид пытается перевоспитать братца Питера и растолковать ему, что воровать — нехорошо!

Страна: США
Студия: Motion Picture Corporation of America (MPCA)
Продолжительность: 01:26:56
Перевод: Профессиональный |Многоголосый закадровый, СТС|
MPAA: R — Лицам до 17 лет обязательно присутствие взрослого

Файл
Качество: WEB-DLRip-AVC
Формат: Matroska
Видео: 1028×556 at 23.976 fps, [email protected], ~2163 kbps
Аудио: 48 kHz, AC3, 2/0 (L,R) ch, ~224 kbps
Субтитры: None

M/I
General
Unique ID : 247850663185034300802703433256531809014 (0xBA764D2850FED172A405E867F78E52F6)
Complete name : F:FILMSДвойные неприятности.(1992).WEB_DLRIP-AVC.[-=DoMiNo=-].mkv
Format : Matroska
Format version : Version 4 / Version 2
File size : 1.45 GiB
Duration : 1 h 26 min
Overall bit rate : 2 387 kb/s
Movie name : Двойные неприятности
Deion : Банда грабителей драгоценностей подставляет под подозрение братьев-близнецов, один из которых — полицейский, а второй — взломщик-рецидивист. Чтобы проучить обидчиков, они вынуждены стать партнерами. / / Посреди зажигательных погонь и ураганной стрельбы Дэвид пытается перевоспитать братца Питера и растолковать ему, что воровать — нехорошо!
Encoded date : UTC 2017-12-30 13:11:43
Writing application : mkvmerge v18.0.0 ('Apricity') 64-bit
Writing library : libebml v1.3.5 + libmatroska v1.4.8 / Lavf57.71.100
Attachments : poster.jpg
COMPOSER : Кевин Надо
COUNTRY : США
DATE : 1992
DIRECTOR : Джон Парагон
ENCODING_INFO : MATROSKA,WEBM > MKV Пользовательский / H264 > X264 VBR-2P 2163kbps Пользовательский / AC3 > AAC CBR 64kbps HE
GENRE : боевик, триллер, комедия, криминал
HD_VIDEO : 1
IMDB_RATING : 3.90
ITUNEXTC : mpaa|R|400|
Language : und
MEDIA_TYPE : 9
ORIGINAL_TITLE : Double Trouble
PRODUCER : Брэд Кревой, Стивен Стаблер, Энн Нэрус, Чад Оман, Рэнди Поуп, Дэвид Таусик
RATING : 5.907
WRITER : Курт Уиммер, Чарльз Осборн, Джеффри Кернс

Video
ID : 1
Format : AVC
Format/Info : Advanced Video Codec
Format profile : [email protected]
Format settings : CABAC / 11 Ref Frames
Format settings, CABAC : Yes
Format settings, ReFrames : 11 frames
Codec ID : V_MPEG4/ISO/AVC
Duration : 1 h 26 min
Bit rate : 2 163 kb/s
Width : 1 028 pixels
Height : 556 pixels
Display aspect ratio : 1.85:1
Frame rate mode : Constant
Frame rate : 23.976 (24000/1001) FPS
Color space : YUV
Chroma subsampling : 4:2:0
Bit depth : 8 bits
Scan type : Progressive
Bits/(Pixel*Frame) : 0.158
Stream size : 1.31 GiB (91%)
Title : RIP_BY_-=DoMiNo=-
Writing library : x264 core 152 r2851M ba24899
Encoding settings : cabac=1 / ref=11 / deblock=1:-3:-3 / analyse=0x3:0x133 / me=umh / subme=11 / psy=1 / psy_rd=1.00:0.05 / mixed_ref=1 / me_range=32 / chroma_me=1 / trellis=2 / 8x8dct=1 / cqm=0 / deadzone=21,11 / fast_pskip=1 / chroma_qp_offset=-3 / threads=6 / lookahead_threads=1 / sliced_threads=0 / nr=0 / decimate=1 / interlaced=0 / bluray_compat=0 / constrained_intra=0 / bframes=12 / b_pyramid=2 / b_adapt=2 / b_bias=0 / direct=3 / weightb=1 / open_gop=0 / weightp=2 / keyint=240 / keyint_min=24 / scenecut=40 / intra_refresh=0 / rc_lookahead=60 / rc=2pass / mbtree=1 / bitrate=2163 / ratetol=1.0 / qcomp=0.60 / qpmin=0 / qpmax=69 / qpstep=4 / cplxblur=20.0 / qblur=0.5 / ip_ratio=1.40 / aq=1:1.00
Language : English
Default : Yes
Forced : No
Color range : Limited
Color primaries : BT.709
Transfer characteristics : BT.709
Matrix coefficients : BT.709

Audio
ID : 2
Format : AC-3
Format/Info : Audio Coding 3
Codec ID : A_AC3
Duration : 1 h 26 min
Bit rate mode : Constant
Bit rate : 224 kb/s
Channel(s) : 2 channels
Channel positions : Front: L R
Sampling rate : 48.0 kHz
Frame rate : 31.250 FPS (1536 SPF)
Bit depth : 16 bits
Compression mode : Lossy
Stream size : 139 MiB (9%)
Title : MVO_СТС
Language : Russian
Service kind : Complete Main
Default : No
Forced : No
Скриншоты


Скачать Dvojnye_neprijatnosti.1992.WEB_DLRIP-AVC.-DoMiN.torrent

просмотры: 0

Post Comment