Аниме

Детектив Конан OVA-7: Вызов от Агасы! / Detective Conan: A Challenge from Agasa (2007) DVDRip-AVC | L


Детектив Конан: Вызов от Агасы! Агаса против Конана и Юных Сыщиков /
Detective Conan: Agasa-sensei no Chousenjou! Agasa vs Conan & Shounen Tanteidan

Страна: Япония
Год выпуска: 2007
Жанр: приключения, детектив
Тип: OVA
Продолжительность: (1 эп.), 25 мин.
Режиссер: Ямамото Ясуйтиро
Студия: TMS

Описание:
Профессор Агаса дает юной команде детективов задание — найти его (он был "похищен"), используя подсказки.
Однако в конце концов профессора на самом деле похищают настоящие преступники! Юная команда детективов начинает расследование.

Доп. информация:
Релиз GSGroup

Качество: DVDRip
Тип релиза: Без хардсаба
Формат видео: MKV
Автор рипа: APTX4869
Видео: AVC 864×480 23.976 fps 592 Kbps 8 bits
Аудио 1: AC-3 192 Kbps 2 channels 48.0 KHz Язык Русский (в составе контейнера) ; Озвучка: Любительская одноголосая: Persona99
Аудио 2: AC-3 192 Kbps 2 channels 48.0 KHz Язык Японский
Субтитры: ass встроенные Язык субтитров русский ; Перевод: Tachikoma h, Teisson h. Редактура: Roaring_Lion, лирика: korrah

Подробные тех. данные

General
Unique ID : 210905924011296580180235448115288266129 (0x9EAB00E21CC69CE5ACE325C76F9AD591)
Complete name : W:Detective Conan OVADetective Conan OVA-07 ~Agasa-sensei no Chousenjou! Agasa vs Conan & Shounen Tanteidan~[DVDRIP_X264_AC3].rus.jpn.mkv
Format : Matroska
Format version : Version 2
File size : 178 MiB
Duration : 25mn 3s
Overall bit rate : 996 Kbps
Encoded date : UTC 2017-11-06 05:13:54
Writing application : mkvmerge v4.0.0 ('The Stars were mine') built on Jun 6 2010 16:18:42
Writing library : libebml v1.0.0 + libmatroska v1.0.0
Attachements : CALIBRIB.TTF / CAMBRIAB.TTF / trebuc.ttf / trebucbd.ttf / trebucit.ttf

Video
ID : 1
Format : AVC
Format/Info : Advanced Video Codec
Format profile : [email protected]
Format settings, CABAC : Yes
Format settings, ReFrames : 5 frames
Codec ID : V_MPEG4/ISO/AVC
Duration : 25mn 3s
Bit rate : 592 Kbps
Width : 864 pixels
Height : 480 pixels
Display aspect ratio : 16:9
Frame rate mode : Constant
Frame rate : 23.976 fps
Color space : YUV
Chroma subsampling : 4:2:0
Bit depth : 8 bits
Scan type : Progressive
Bits/(Pixel*Frame) : 0.060
Stream size : 106 MiB (59%)
Title : Video
Language : Japanese
Default : No
Forced : No

Audio #1
ID : 2
Format : AC-3
Format/Info : Audio Coding 3
Mode extension : CM (complete main)
Format settings, Endianness : Big
Codec ID : A_AC3
Duration : 25mn 3s
Bit rate mode : Constant
Bit rate : 192 Kbps
Channel(s) : 2 channels
Channel positions : Front: L R
Sampling rate : 48.0 KHz
Compression mode : Lossy
Stream size : 34.4 MiB (19%)
Title : Persona99
Language : Russian
Default : Yes
Forced : No

Audio #2
ID : 3
Format : AC-3
Format/Info : Audio Coding 3
Mode extension : CM (complete main)
Format settings, Endianness : Big
Codec ID : A_AC3
Duration : 25mn 3s
Bit rate mode : Constant
Bit rate : 192 Kbps
Channel(s) : 2 channels
Channel positions : Front: L R
Sampling rate : 48.0 KHz
Compression mode : Lossy
Delay relative to video : 14ms
Stream size : 34.4 MiB (19%)
Title : Audio
Language : Japanese
Default : No
Forced : No

Text
ID : 4
Format : ASS
Codec ID : S_TEXT/ASS
Codec ID/Info : Advanced Sub Station Alpha
Compression mode : Lossless
Title : ass
Language : Russian
Default : No
Forced : No

Menu
00:00:00.000 : en:Agasa's Advice
00:00:07.010 : en:APTX4869's Wishes
00:00:14.298 : en:Opening
00:00:21.346 : en:1st Part
00:23:01.910 : en:Ending Theme
00:24:09.899 : en:2nd Part

Скриншоты


Скачать Detective_Conan_OVA-07.torrent

просмотры: 0

Post Comment