Военный Зарубежные фильмы

Осада / The Siege (1998) BDRip 720p | D, P, P2, A

Информация о фильме
Название: Осада
Оригинальное название: The Siege
Год выхода: 1998
Жанр: боевик, триллер, драма, криминал
Страна: США
Студия: 20th Century Fox Film Corporation, Bedford Falls Productions, Lynda Obst Productions
Продолжительность: 01:56:05
Перевод: Дублированный, профессиональный многоголосый, профессиональный двухголосый, авторский одноголосый
Режиссер: Эдвард Цвик
В ролях: Дензел Вашингтон, Аннетт Бенинг, Брюс Уиллис, Тони Шэлоуб, Сами Буажила, Ахмед Бен Ларби, Мосле Мохамед, Лианна Пай, Марк Вэлли, Джек Гуолтни, Дэвид Провэл, Лэнс Реддик, Джереми Кнастер, Уильям Хилл, Аасиф Мандви, Фрэнк ДиЭлси, Вуд Харрис, Эллен Бети, Дэвид Костабайл, Гленн Кесслер, Джеффри Вайд, Том МакДермотт

О фильме
Когда в Бруклине взлетает на воздух автобус и на улицах Нью-Йорка разворачивается кровавый террор, Хаб — Хаббарт, глава Объединенного Антитеррористического Подразделения ФБР получает задание задержать террористов и предъявить им обвинение. Элиза Крафт — тайный оперативный агент ЦРУ. Она обладает ценными источниками информации в среде американцев арабского происхождения и тесно связана с ними. Хаб и Элиза работают вместе, объединившись для совместной борьбы против террористической группы. Но этого оказывается недостаточно. Требования общественности обеспечить безопасность граждан вынуждают президента США объявить чрезвычайное положение и обратиться за помощью к армии. Генерал Уильям Деверо решительно берется за дело по наведению военного порядка.

Файл
Качество: BDRip 720p
Видео: MPEG-4 AVC, 1280×544 (2.35:1), 7412 kbps, 23.976 fps, 0.444 bpp
Аудио 1: Russian: 48 kHz, AC3, 5.1 ch, 448 kbps — DUB, Blu-Ray CEE
Аудио 2: Russian: 48 kHz, AC3, 2.0 ch, 192 kbps — MVO, Первый канал
Аудио 3: Russian: 48 kHz, AC3, 5.1 ch, 448 kbps — DVO, П. Гланц и И. Королёва
Аудио 4: Russian: 48 kHz, AC3, 5.1 ch, 448 kbps — AVO, Ю. Живов
Аудио 5: Ukrainian: 48 kHz, AC3, 5.1 ch, 384 kbps — DVO, 1+1
Аудио 6: English: 48 kHz, AC3, 5.1 ch, 448 kbps — Оригинал
Субтитры: Русские, английские
Навигация по главам: есть

Скриншоты


MediaInfo
Общее
Уникальный идентификатор : 203782904862702892876828461762753236751 (0x994F28ECC6E5F0E2ACD313ECA4968F0F)
Полное имя : The.Siege.1998.BDRip.720p.mkv
Формат : Matroska
Версия формата : Version 2
Размер файла : 7,93 Гбайт
Продолжительность : 1 ч. 56 м.
Общий поток : 9780 Кбит/сек
Название фильма : The Siege (1998)
Дата кодирования : UTC 2017-12-05 10:31:21
Программа кодирования : mkvmerge v5.8.0 ('No Sleep / Pillow') built on Sep 2 2012 15:37:04
Библиотека кодирования : libebml v1.2.3 + libmatroska v1.3.0

Видео
Идентификатор : 1
Формат : AVC
Формат/Информация : Advanced Video Codec
Профиль формата : [email protected]
Параметр CABAC формата : Да
Параметр RefFrames формата : 12 кадров
Идентификатор кодека : V_MPEG4/ISO/AVC
Продолжительность : 1 ч. 56 м.
Битрейт : 7412 Кбит/сек
Ширина : 1280 пикселей
Высота : 544 пикселя
Соотношение сторон : 2,35:1
Режим частоты кадров : Постоянный
Частота кадров : 23,976 кадра/сек
Цветовое пространство : YUV
Субдискретизация насыщенности : 4:2:0
Битовая глубина : 8 бит
Тип развёртки : Прогрессивная
Бит/(Пиксели*Кадры) : 0.444
Размер потока : 5,85 Гбайт (74%)
Заголовок : The Siege (1998)
Библиотека кодирования : x264 core 130 r2273 b3065e6
Настройки программы : cabac=1 / ref=12 / deblock=1:-3:-3 / analyse=0x3:0x133 / me=umh / subme=11 / psy=1 / psy_rd=1.00:0.10 / mixed_ref=1 / me_range=32 / chroma_me=1 / trellis=2 / 8x8dct=1 / cqm=0 / deadzone=21,11 / fast_pskip=1 / chroma_qp_offset=-3 / threads=6 / lookahead_threads=1 / sliced_threads=0 / nr=0 / decimate=1 / interlaced=0 / bluray_compat=0 / constrained_intra=0 / bframes=8 / b_pyramid=2 / b_adapt=2 / b_bias=0 / direct=3 / weightb=1 / open_gop=0 / weightp=2 / keyint=250 / keyint_min=23 / scenecut=40 / intra_refresh=0 / rc_lookahead=60 / rc=2pass / mbtree=1 / bitrate=7412 / ratetol=1.0 / qcomp=0.60 / qpmin=0 / qpmax=69 / qpstep=4 / cplxblur=20.0 / qblur=0.5 / ip_ratio=1.40 / aq=1:1.00
Язык : English
Default : Да
Forced : Нет

Аудио #1
Идентификатор : 2
Формат : AC-3
Формат/Информация : Audio Coding 3
Параметр Endianness формата : Big
Идентификатор кодека : A_AC3
Продолжительность : 1 ч. 56 м.
Вид битрейта : Постоянный
Битрейт : 448 Кбит/сек
Каналы : 6 каналов
Расположение каналов : Front: L C R, Side: L R, LFE
Частота : 48,0 КГц
Частота кадров : 31,250 кадров/сек (1536 SPF)
Битовая глубина : 16 бит
Метод сжатия : С потерями
Размер потока : 372 Мбайт (5%)
Заголовок : DUB, Blu-Ray CEE
Язык : Russian
Default : Да
Forced : Нет

Аудио #2
Идентификатор : 3
Формат : AC-3
Формат/Информация : Audio Coding 3
Параметр Endianness формата : Big
Идентификатор кодека : A_AC3
Продолжительность : 1 ч. 56 м.
Вид битрейта : Постоянный
Битрейт : 192 Кбит/сек
Каналы : 2 канала
Расположение каналов : Front: L R
Частота : 48,0 КГц
Частота кадров : 31,250 кадров/сек (1536 SPF)
Битовая глубина : 16 бит
Метод сжатия : С потерями
Размер потока : 159 Мбайт (2%)
Заголовок : MVO, Первый канал
Язык : Russian
Default : Нет
Forced : Нет

Аудио #3
Идентификатор : 4
Формат : AC-3
Формат/Информация : Audio Coding 3
Параметр Endianness формата : Big
Идентификатор кодека : A_AC3
Продолжительность : 1 ч. 56 м.
Вид битрейта : Постоянный
Битрейт : 448 Кбит/сек
Каналы : 6 каналов
Расположение каналов : Front: L C R, Side: L R, LFE
Частота : 48,0 КГц
Частота кадров : 31,250 кадров/сек (1536 SPF)
Битовая глубина : 16 бит
Метод сжатия : С потерями
Размер потока : 372 Мбайт (5%)
Заголовок : DVO, Гланц и Королёва
Язык : Russian
Default : Нет
Forced : Нет

Аудио #4
Идентификатор : 5
Формат : AC-3
Формат/Информация : Audio Coding 3
Параметр Endianness формата : Big
Идентификатор кодека : A_AC3
Продолжительность : 1 ч. 56 м.
Вид битрейта : Постоянный
Битрейт : 448 Кбит/сек
Каналы : 6 каналов
Расположение каналов : Front: L C R, Side: L R, LFE
Частота : 48,0 КГц
Частота кадров : 31,250 кадров/сек (1536 SPF)
Битовая глубина : 16 бит
Метод сжатия : С потерями
Размер потока : 372 Мбайт (5%)
Заголовок : AVO, Ю. Живов
Язык : Russian
Default : Нет
Forced : Нет

Аудио #5
Идентификатор : 6
Формат : AC-3
Формат/Информация : Audio Coding 3
Параметр Endianness формата : Big
Идентификатор кодека : A_AC3
Продолжительность : 1 ч. 56 м.
Вид битрейта : Постоянный
Битрейт : 384 Кбит/сек
Каналы : 6 каналов
Расположение каналов : Front: L C R, Side: L R, LFE
Частота : 48,0 КГц
Частота кадров : 31,250 кадров/сек (1536 SPF)
Битовая глубина : 16 бит
Метод сжатия : С потерями
Размер потока : 319 Мбайт (4%)
Заголовок : DVO, 1+1
Язык : Ukrainian
Default : Нет
Forced : Нет

Аудио #6
Идентификатор : 7
Формат : AC-3
Формат/Информация : Audio Coding 3
Параметр Endianness формата : Big
Идентификатор кодека : A_AC3
Продолжительность : 1 ч. 56 м.
Вид битрейта : Постоянный
Битрейт : 448 Кбит/сек
Каналы : 6 каналов
Расположение каналов : Front: L C R, Side: L R, LFE
Частота : 48,0 КГц
Частота кадров : 31,250 кадров/сек (1536 SPF)
Битовая глубина : 16 бит
Метод сжатия : С потерями
Размер потока : 372 Мбайт (5%)
Заголовок : Original
Язык : English
Default : Нет
Forced : Нет

Текст #1
Идентификатор : 8
Формат : UTF-8
Идентификатор кодека : S_TEXT/UTF8
Идентификатор кодека/Информация : UTF-8 Plain Text
Язык : Russian
Default : Нет
Forced : Нет

Текст #2
Идентификатор : 9
Формат : UTF-8
Идентификатор кодека : S_TEXT/UTF8
Идентификатор кодека/Информация : UTF-8 Plain Text
Язык : English
Default : Нет
Forced : Нет

Меню
00:00:00.000 : en:00:00:00.000
00:04:32.105 : en:00:04:32.105
00:07:38.750 : en:00:07:38.750
00:10:06.606 : en:00:10:06.606
00:15:15.123 : en:00:15:15.123
00:18:36.866 : en:00:18:36.866
00:26:13.530 : en:00:26:13.530
00:31:30.180 : en:00:31:30.180
00:35:22.495 : en:00:35:22.495
00:43:58.094 : en:00:43:58.094
00:46:22.488 : en:00:46:22.488
00:49:59.872 : en:00:49:59.872
00:53:43.720 : en:00:53:43.720
00:55:24.488 : en:00:55:24.488
00:58:01.436 : en:00:58:01.436
01:00:46.434 : en:01:00:46.434
01:04:33.870 : en:01:04:33.870
01:10:24.971 : en:01:10:24.971
01:12:42.858 : en:01:12:42.858
01:15:55.176 : en:01:15:55.176
01:19:14.667 : en:01:19:14.667
01:21:40.896 : en:01:21:40.896
01:24:37.990 : en:01:24:37.990
01:29:39.666 : en:01:29:39.666
01:32:02.058 : en:01:32:02.058
01:33:45.453 : en:01:33:45.453
01:39:29.046 : en:01:39:29.046
01:43:07.807 : en:01:43:07.807
01:44:30.389 : en:01:44:30.389
01:49:23.098 : en:01:49:23.098


Скачать The.Siege.1998.BDRip.720p.mkv.torrent

просмотры: 9

Post Comment