Зарубежные фильмы Криминал

Ноябрьские преступники / November Criminals (2017) HDRip-AVC от ExKinoRay | Лицензия

Информация о фильме
Название: Ноябрьские преступники
Оригинальное название: November Criminals
Год выхода: 2017
Жанр: Драма, криминал, детектив
Режиссер: Саша Джерваси
В ролях: Хлоя Грейс Морец, Энсел Элгорт, Кэтрин Кинер, Дэвид Стрэтэйрн, Терри Кинни, Дэн Флаэрти, Кори Хардрикт, Виктор Уильямс, Элли Маршалл, Ноэль Рамос

О фильме :
События фильма «Ноябрьские преступники» разворачиваются вокруг двух школьных выпускников собравшихся поступать в университет. Фиби и Эдисон встречаются уже долгое время, но при этом не испытывают страстных чувств. У них была несуетливая жизнь и желание поступить в университет, но в один миг все меняется. Неизвестный преступник ворвался в кафе и убил их одноклассника Кевина, который там работал. Это преступление полностью меняет взгляды на жизнь Эдисона, поскольку убитый парень был его другом. Полиция считает, что Кевин состоял в банде и Эдисон уверен, что они даже не станут расследовать это дело. Главный герой хочет найти преступника и начинает вести свое расследование, в котором ему помогает Фиби. Вскоре выясняется, что в жизни их друга было много тайн.

Страна: США
Студия: Black Bicycle Entertainment, Indian Paintbrush, Lotus Entertainment (II)
Продолжительность: 01:25:54
Перевод: Профессиональный (многоголосый закадровый) Лицензия

Файл
Формат: MKV
Качество: HDRip-AVC
Видео: MPEG-4 AVC, 752×424, ~ 1136 Кбит/с
Аудио: AAC-LC, 2 ch, ~ 76 Кбит/с

MI
Общее
Уникальный идентификатор : 181337765685155064494091144676827193372 (0x886C621FD38BF7EEB8D84A12F36BE01C)
Полное имя : D:MOVIESNovember.Criminals.2O17.ExKinoRay.mkv
Формат : Matroska
Версия формата : Version 4 / Version 2
Размер файла : 746 Мбайт
Продолжительность : 1 ч. 25 м.
Общий поток : 1214 Кбит/сек
Дата кодирования : UTC 2017-12-29 10:01:37
Программа кодирования : mkvmerge v15.0.0 ('Duel with the Devil') 64-bit
Библиотека кодирования : libebml v1.3.5 + libmatroska v1.4.5

Видео
Идентификатор : 1
Формат : AVC
Формат/Информация : Advanced Video Codec
Профиль формата : [email protected]
Параметр CABAC формата : Да
Параметр RefFrames формата : 10 кадров
Идентификатор кодека : V_MPEG4/ISO/AVC
Продолжительность : 1 ч. 25 м.
Битрейт : 1136 Кбит/сек
Ширина : 752 пикселя
Высота : 424 пикселя
Соотношение сторон : 16:9
Режим частоты кадров : Постоянный
Частота кадров : 23,976 (24000/1001) кадра/сек
Цветовое пространство : YUV
Субдискретизация насыщенности : 4:2:0
Битовая глубина : 8 бит
Тип развёртки : Прогрессивная
Бит/(Пиксели*Кадры) : 0.149
Размер потока : 698 Мбайт (94%)
Библиотека кодирования : x264 core 152 r2851 ba24899
Настройки программы : cabac=1 / ref=10 / deblock=1:-3:-3 / analyse=0x3:0x133 / me=umh / subme=11 / psy=1 / psy_rd=1.00:0.12 / mixed_ref=1 / me_range=32 / chroma_me=1 / trellis=2 / 8x8dct=1 / cqm=0 / deadzone=21,11 / fast_pskip=0 / chroma_qp_offset=-3 / threads=6 / lookahead_threads=1 / sliced_threads=0 / nr=0 / decimate=0 / interlaced=0 / bluray_compat=0 / constrained_intra=0 / bframes=10 / b_pyramid=2 / b_adapt=2 / b_bias=0 / direct=3 / weightb=1 / open_gop=0 / weightp=2 / keyint=240 / keyint_min=23 / scenecut=40 / intra_refresh=0 / rc_lookahead=40 / rc=2pass / mbtree=0 / bitrate=1136 / ratetol=1.0 / qcomp=0.60 / qpmin=0 / qpmax=69 / qpstep=4 / cplxblur=20.0 / qblur=0.5 / vbv_maxrate=50000 / vbv_bufsize=62500 / nal_hrd=none / filler=0 / ip_ratio=1.40 / pb_ratio=1.30 / aq=1:1.00
Default : Да
Forced : Нет

Аудио
Идентификатор : 2
Формат : AAC
Формат/Информация : Advanced Audio Codec
Профиль формата : LC
Идентификатор кодека : A_AAC
Продолжительность : 1 ч. 25 м.
Битрейт : 76,0 Кбит/сек
Каналы : 2 канала
Расположение каналов : Front: L R
Частота : 48,0 КГц
Частота кадров : 46,875 кадров/сек (1024 SPF)
Метод сжатия : С потерями
Задержка видео : 9 мс.
Размер потока : 46,7 Мбайт (6%)
Default : Да
Forced : Нет

Меню
00:00:00.000 : en:
00:08:00.522 : en:
00:12:34.837 : en:
00:16:58.392 : en:
00:20:41.740 : en:
00:23:47.885 : en:
00:28:06.560 : en:
00:33:31.593 : en:
00:41:05.505 : en:
00:46:20.987 : en:
00:50:08.339 : en:
00:56:56.580 : en:
00:59:55.717 : en:
01:05:51.197 : en:
01:09:35.963 : en:
01:13:45.171 : en:

Скриншоты


Релиз от:


Скачать November.Criminals.2O17.ExKinoRay.mkv.torrent

просмотры: 0

Post Comment