Детектив Зарубежные фильмы

Необычное сожительство / Странные отношения / The Strange Cohabitation (2013) WEBRip 720p | L2

Информация о фильме
Название: Необычное сожительство / Странные отношения
Оригинальное название: The Strange Cohabitation
Год выхода: 2013
Жанр: детектив, триллер
Режиссер: Ли Чон Соп
В ролях: Пак Сон Ун, Ли Си Он, Ю Ин Ён, Чу Со Ён, Хван Ён Хи

О фильме:
Три месяца назад жена детектива Су Хёна (Пак Сон У) была изнасилована и убита. С тех пор его жизнь развалилась, и он видит призрак Йе Рин (Чу Со Ён) в их квартире. Затем он начинает видеть и другого призрака. Главный герой был отстранен от работы детектива из-за неприятностей, которые он доставлял, разыскивая убийцу своей любимой. Вскоре Су Хён начинает чувствовать, что другие жители в его жилом комплексе что-то скрывают…
Из цикла фильмов KBS Drama Special 2013.

Страна: Южная Корея
Студия: KBS2
Продолжительность: 01:06:58
Перевод: Любительский, двухголосый, закадровый (РГ "XDUB DORAMA", перевод на русский: Sub-Unit "Zoloto", закадровый текст читали: Yamatori & Миша Мишин, тайминг и работа со звуком: Izanami)

Файл
Кодек: V_MPEG4/ISO/AVC
Качество: WEBRip 720p
Видео: 1280×720 (16:9), 29.970 FPS, 1153 kb/s
Звук: mp3, 48.0 kHz, 2ch, 320 kb/s
Субтитры: английские (хардсаб)

Скриншоты

MediaInfo
General
Unique ID : 230649023171172586918860600400321749192 (0xAD8562D3508003A2AB41D3C7E194A0C8)
Complete name : The.Strange.Cohabitation.2013.L2.720p.WEBRip.mkv
Format : Matroska
Format version : Version 2
File size : 720 MiB
Duration : 1 h 6 min
Overall bit rate : 1 503 kb/s
Encoded date : UTC 2017-12-23 12:12:13
Writing application : mkvmerge v4.2.0 ('No Talking') сборка от Jul 28 2010 18:38:23
Writing library : libebml v1.0.0 + libmatroska v1.0.0

Video
ID : 1
Format : AVC
Format/Info : Advanced Video Codec
Format profile : [email protected]
Format settings, CABAC : Yes
Format settings, RefFrames : 3 frames
Muxing mode : Header stripping
Codec ID : V_MPEG4/ISO/AVC
Duration : 1 h 6 min
Bit rate : 1 153 kb/s
Width : 1 280 pixels
Height : 720 pixels
Display aspect ratio : 16:9
Frame rate mode : Constant
Frame rate : 29.970 (30000/1001) FPS
Color space : YUV
Chroma subsampling : 4:2:0
Bit depth : 8 bits
Scan type : Progressive
Bits/(Pixel*Frame) : 0.042
Stream size : 552 MiB (77%)
Default : Yes
Forced : No

Audio
ID : 2
Format : MPEG Audio
Format version : Version 1
Format profile : Layer 3
Mode : Joint stereo
Muxing mode : Header stripping
Codec ID : A_MPEG/L3
Codec ID/Hint : MP3
Duration : 1 h 6 min
Bit rate mode : Constant
Bit rate : 320 kb/s
Channel(s) : 2 channels
Sampling rate : 48.0 kHz
Compression mode : Lossy
Stream size : 153 MiB (21%)
Default : Yes
Forced : No

Релиз от:


Скачать The.Strange.Cohabitation.torrent

просмотры: 0

Post Comment