Аниме

Инуяша (фильм второй) / Inuyasha: Kagami no Naka no Mugenjou (2002) HDRip | Persona99


Инуяша: Замок в зазеркалье / Inuyasha the Movie 2: The Castle Beyond the Looking Glass

Год выпуска: 2002
Страна: Япония
Жанр: приключения, комедия, фэнтези, романтика
Продолжительность: полнометражный фильм, 99 мин.
Режиссер: Синохара Тосия
Студия: Sunrise

Описание:
Этот фильм представляет собой отдельную историю из эпопеи приключений в средневековой Японии полудемона Инуяши, девушки из XX века Кагомэ и их друзей — буддийского монаха Мироку, охотницы за демонами Санго и демона-лисенка Шиппо. Наконец Нараку умирает и Казаана Мироку исчезает с правой руки…., но не тут-то было, появляется новый враг — Принцесса Кагуя… Она использует Порождения нараку в своих целях, а именно убеждает их снять печать, сдерживающую её…

Качество: HDRip
Тип релиза: Без хардсаба
Формат видео: AVI
Видео: XviD, 720×400, 23.976 fps, ~1432 Kbps, 8 bits
Аудио 1: AC-3 , 192 kb/s, 48.0 KHz, 2 ch ; Язык Русский (в составе контейнера) ; Озвучка: Любительская одноголосая: Persona99
Аудио 2: AC-3, 192 Kbps, 48.0 KHz, 2 channels Язык Японский ; Озвучка 2: Оригинал
Субтитры: srt внешние, Язык субтитров русский ;перевод Зимин Тимофей aka Rakott, редактор Troll.

Подробные тех. данные
General
Complete name : Inuyasha the Movie 2/Inuyasha Kagami no Naka no Mugenjou [Persona99].rus.jpn.avi
Format : AVI
Format/Info : Audio Video Interleave
File size : 1.27 GiB
Duration : 1h 39mn
Overall bit rate : 1 830 Kbps
Writing application : VirtualDubMod 1.5.10.2 (build 2540/release)
Writing library : VirtualDubMod build 2540/release

Video
ID : 0
Format : MPEG-4 Visual
Format profile : Advanced [email protected]
Format settings, BVOP : 2
Format settings, QPel : No
Format settings, GMC : No warppoints
Format settings, Matrix : Default (H.263)
Codec ID : XVID
Codec ID/Hint : XviD
Duration : 1h 39mn
Bit rate : 1 432 Kbps
Width : 720 pixels
Height : 400 pixels
Display aspect ratio : 16:9
Frame rate : 23.976 fps
Color space : YUV
Chroma subsampling : 4:2:0
Bit depth : 8 bits
Scan type : Progressive
Compression mode : Lossy
Bits/(Pixel*Frame) : 0.207
Stream size : 1 015 MiB (78%)
Writing library : XviD 67

Audio #1
ID : 1
Format : AC-3
Format/Info : Audio Coding 3
Mode extension : CM (complete main)
Format settings, Endianness : Big
Codec ID : 2000
Duration : 1h 39mn
Bit rate mode : Constant
Bit rate : 192 Kbps
Channel(s) : 2 channels
Channel positions : Front: L R
Sampling rate : 48.0 KHz
Compression mode : Lossy
Stream size : 136 MiB (10%)
Alignment : Split accross interleaves
Interleave, duration : 42 ms (1.00 video frame)
Interleave, preload duratio : 500 ms

Audio #2
ID : 2
Format : AC-3
Format/Info : Audio Coding 3
Mode extension : CM (complete main)
Format settings, Endianness : Big
Codec ID : 2000
Duration : 1h 39mn
Bit rate mode : Constant
Bit rate : 192 Kbps
Channel(s) : 2 channels
Channel positions : Front: L R
Sampling rate : 48.0 KHz
Compression mode : Lossy
Stream size : 136 MiB (10%)
Alignment : Split accross interleaves
Interleave, duration : 42 ms (1.00 video frame)
Interleave, preload duratio : 500 ms
Скриншоты

Семпл:
https://yadi.sk/i/OSODXYa93PZoC4



Скачать Inuyasha_the_Movie_2.torrent

просмотры: 0

Post Comment