Боевик Зарубежные фильмы

Ангелы Чарли / Charlie’s Angels (2000) WEB-DLRip-AVC | D | Open Matte



Информация о фильме
Название: Ангелы Чарли
Оригинальное название: Charlie's Angels
Год выпуска: 2000
Жанр: боевик, триллер, комедия, криминал, приключения
Режиссер: МакДжи

В ролях: Кэмерон Диаз (Natalie Cook), Дрю Бэрримор (Dylan Sanders), Люси Лью (Alex Munday), Билл Мюррей (John Bosley), Сэм Рокуэлл (Eric Knox), Келли Линч (Vivian Wood), Тим Карри (Roger Corwin), Криспин Гловер (Thin Man), Мэтт ЛеБлан (Jason Gibbons), ЭлЭл Кул Джей (Mr. Jones), Том Грин (Chad), Люк Уилсон (Pete Komisky)

О фильме:
Ангелы Чарли — суперсекретное элитное спецподразделение, которому доверяют только невыполнимые задания. С помощью новейших технологий, современного оружия, боевых искусств и убийственного женского очарования Ангелы Чарли творят чудеса. Но настоящим испытанием станет лишь это последнее задание…

Страна: США, Германия
Студия: Columbia Pictures Corporation, Flower Films, Global Entertainment Productions
Продолжительность: 01:38:26
Перевод: Профессиональный (дублированный)
Субтитры: Russian (R5, Superbit), English (SDH)

Файл
Качество: WEB-DLRip-AVC | Open Matte
Формат: Matroska
Видео: 1024×576 at 23.976 fps, [email protected], ~2721 kbps
Аудио: 48 kHz, AC3, 3/2 (L,C,R,l,r) + LFE ch, ~448 kbps

  • Детям до 13 лет просмотр не желателен



    M/I
    General
    Unique ID : 42287812138172073521526166707579037089 (0x1FD0561C35CC88E5F78A4F379406A5A1)
    Complete name : F:FILMSАнгелы Чарли.Open.Matte.(2000).WEB-DLRIP_AVC.[-=DoMiNo=-].mkv
    Format : Matroska
    Format version : Version 4 / Version 2
    File size : 2.18 GiB
    Duration : 1 h 38 min
    Overall bit rate : 3 171 kb/s
    Movie name : Ангелы Чарли
    Deion : Ангелы Чарли — суперсекретное элитное спецподразделение, которому доверяют только невыполнимые задания. С помощью новейших технологий, современного оружия, боевых искусств и убийственного женского очарования Ангелы Чарли творят чудеса. Но настоящим испытанием станет лишь это последнее задание…
    Writing application : XviD4PSP 7.0.434 DAILY
    Writing library : Lavf57.71.100
    ErrorDetectionType : Per level 1
    Attachments : poster.jpg
    COMPOSER : Эд Ширмёр
    COUNTRY : США, Германия
    DATE : 2000
    DIRECTOR : МакДжи
    ENCODING_INFO : MATROSKA,WEBM > MKV Пользовательский / H264 > X264 VBR-2P 2721kbps Пользовательский / AC3 > AC3 CBR 448kbps
    GENRE : боевик, триллер, комедия, криминал, приключения
    HD_VIDEO : 1
    IMDB_RATING : 5.50
    ITUNEXTC : mpaa|PG-13|300|
    Language : und
    MEDIA_TYPE : 9
    ORIGINAL_TITLE : Charlie's Angels
    PRODUCER : Дрю Бэрримор, Леонард Голдберг, Нэнси Джувонен, Джозеф М. Караччоло, Аманда Голдберг, Аарон Спеллинг, Бетти Томас, Дженно Топпинг
    RATING : 6.561
    WRITER : Райан Роу, Эд Соломон, Джон Огаст, Иван Гофф, Бен Робертс

    Video
    ID : 1
    Format : AVC
    Format/Info : Advanced Video Codec
    Format profile : [email protected]
    Format settings : CABAC / 11 Ref Frames
    Format settings, CABAC : Yes
    Format settings, ReFrames : 11 frames
    Codec ID : V_MPEG4/ISO/AVC
    Duration : 1 h 38 min
    Bit rate : 2 721 kb/s
    Width : 1 024 pixels
    Height : 576 pixels
    Display aspect ratio : 16:9
    Frame rate mode : Constant
    Frame rate : 23.976 (24000/1001) FPS
    Color space : YUV
    Chroma subsampling : 4:2:0
    Bit depth : 8 bits
    Scan type : Progressive
    Bits/(Pixel*Frame) : 0.192
    Stream size : 1.83 GiB (84%)
    Title : RIP_BY_-=DoMiNo=-
    Writing library : x264 core 152 r2851M ba24899
    Encoding settings : cabac=1 / ref=11 / deblock=1:-3:-3 / analyse=0x3:0x133 / me=umh / subme=10 / psy=1 / psy_rd=1.00:0.05 / mixed_ref=1 / me_range=32 / chroma_me=1 / trellis=2 / 8x8dct=1 / cqm=0 / deadzone=21,11 / fast_pskip=1 / chroma_qp_offset=-3 / threads=6 / lookahead_threads=1 / sliced_threads=0 / nr=0 / decimate=1 / interlaced=0 / bluray_compat=0 / constrained_intra=0 / bframes=12 / b_pyramid=2 / b_adapt=2 / b_bias=0 / direct=3 / weightb=1 / open_gop=0 / weightp=2 / keyint=240 / keyint_min=24 / scenecut=40 / intra_refresh=0 / rc_lookahead=60 / rc=2pass / mbtree=1 / bitrate=2721 / ratetol=1.0 / qcomp=0.60 / qpmin=0 / qpmax=69 / qpstep=4 / cplxblur=20.0 / qblur=0.5 / ip_ratio=1.40 / aq=1:1.00
    Language : English
    Default : Yes
    Forced : Yes
    Color range : Limited
    Color primaries : BT.709
    Transfer characteristics : BT.709
    Matrix coefficients : BT.709

    Audio
    ID : 2
    Format : AC-3
    Format/Info : Audio Coding 3
    Codec ID : A_AC3
    Duration : 1 h 38 min
    Bit rate mode : Constant
    Bit rate : 448 kb/s
    Channel(s) : 6 channels
    Channel positions : Front: L C R, Side: L R, LFE
    Sampling rate : 48.0 kHz
    Frame rate : 31.250 FPS (1536 SPF)
    Bit depth : 16 bits
    Compression mode : Lossy
    Stream size : 315 MiB (14%)
    Title : DUB (Blu-ray CEE)
    Language : Russian
    Service kind : Complete Main
    Default : Yes
    Forced : No

    Text #1
    ID : 3
    Format : UTF-8
    Codec ID : S_TEXT/UTF8
    Codec ID/Info : UTF-8 Plain Text
    Title : [полный] R5
    Language : Russian
    Default : Yes
    Forced : No

    Text #2
    ID : 4
    Format : UTF-8
    Codec ID : S_TEXT/UTF8
    Codec ID/Info : UTF-8 Plain Text
    Title : [полный] Superbit
    Language : Russian
    Default : No
    Forced : No

    Text #3
    ID : 5
    Format : UTF-8
    Codec ID : S_TEXT/UTF8
    Codec ID/Info : UTF-8 Plain Text
    Title : [полный]
    Language : English
    Default : No
    Forced : No

    Text #4
    ID : 6
    Format : UTF-8
    Codec ID : S_TEXT/UTF8
    Codec ID/Info : UTF-8 Plain Text
    Title : [SDH]
    Language : English
    Default : No
    Forced : No

    Menu
    00:00:00.000 : :Chapter 01
    00:05:23.448 : :Chapter 02
    00:11:30.606 : :Chapter 03
    00:18:14.092 : :Chapter 04
    00:23:14.601 : :Chapter 05
    00:28:45.473 : :Chapter 06
    00:35:33.547 : :Chapter 07
    00:39:43.672 : :Chapter 08
    00:48:38.749 : :Chapter 09
    00:52:18.677 : :Chapter 10
    00:59:11.464 : :Chapter 11
    01:03:02.737 : :Chapter 12
    01:10:10.163 : :Chapter 13
    01:15:42.079 : :Chapter 14
    01:20:49.386 : :Chapter 15
    01:23:20.078 : :Chapter 16
    Скриншоты




  • Скачать Angely_CHarli.Open.Matte.2000.WEB-DLRIP_AVC.-Do.torrent

    просмотры: 6

    Post Comment