Боевик Зарубежные фильмы

Побег / The Getaway (1972) BDRip 720p от NNNB | P, A

Побег / The Getaway

«They're Hot — McQueen/MacGraw»


Русское название: Побег
Оригинальное название: The Getaway
Год выпуска: 1972
Жанр: боевик, триллер, криминал
Выпущено: США
Режиссер: Сэм Пекинпа
В ролях: Стив МакКуин , Эли МакГроу , Бен Джонсон , Сэлли Стразерс , Аль Леттьери , Слим Пикенс , Ричард Брайт , Джек Додсон , Даб Тейлор , Бо Хопкинс , Рой Дженсон , Джон Брайсон
Перевод: Авторский одноголосый, Профессиональный многоголосый

Сюжет фильма:
Очень крутого и знаменитого грабителя банка по имени Док МакКой некие сильные мира сего освобождают из тюряги, где он мотал очередной срок, для совершения ограбления, чтобы списать на него крупную недостачу и затем убрать.

Качество: BDRip 720p
Формат: AVC (библиотека кодирования x.264)
Контейнер (Расширение): MKV
Видео: 1280×534, 8500 Кбит/сек, 23,976 кадр/сек, 0,519 Бит/[Пиксели*Кадры]
Аудио №1: русский / AC3 / 2.0 / 48 kHz / 192 kbps / |Профессиональный многоголосый, Мастер-Тэйп |
Аудио №2: русский / AC3 / 2.0 / 48 kHz / 192 kbps / |Профессиональный многоголосый, НТВ |
Аудио №3: русский / AC3 / 1.0 / 48 kHz / 192 kbps / |Авторский одноголосый, В.Казаков|
Аудио №4: английский / AC3 / 1.0 / 48 kHz / 192 kbps /
Субтитры: английские
Навигация по главам(Чаптеры): есть
Продолжительность: 02:02:49

Автор рипа: Группа:

MediaInfo

Format : Matroska
Format version : Version 2
File size : 7.95 GiB
Duration : 2 h 2 min
Overall bit rate : 9 270 kb/s
Movie name : The Getaway.(1972).BDRip.720p.[denis100]
Encoded date : UTC 2017-05-27 09:28:44
Writing application : mkvmerge v5.8.0 ('No Sleep / Pillow') built on Sep 2 2012 15:37:04
Writing library : libebml v1.2.3 + libmatroska v1.3.0

Video
ID : 1
Format : AVC
Format/Info : Advanced Video Codec
Format profile : [email protected]
Format settings, CABAC : Yes
Format settings, ReFrames : 11 frames
Codec ID : V_MPEG4/ISO/AVC
Duration : 2 h 2 min
Bit rate : 8 500 kb/s
Width : 1 280 pixels
Height : 534 pixels
Display aspect ratio : 2.40:1
Frame rate mode : Constant
Frame rate : 23.976 (24000/1001) FPS
Color space : YUV
Chroma subsampling : 4:2:0
Bit depth : 8 bits
Scan type : Progressive
Bits/(Pixel*Frame) : 0.519
Stream size : 7.14 GiB (90%)
Title : The Getaway.(1972).BDRip.720p.[denis100]
Writing library : x264 core 148 r2744 b97ae06
Encoding settings : cabac=1 / ref=11 / deblock=1:-3:-3 / analyse=0x3:0x133 / me=umh / subme=11 / psy=1 / psy_rd=1.00:0.15 / mixed_ref=1 / me_range=32 / chroma_me=1 / trellis=2 / 8x8dct=1 / cqm=0 / deadzone=21,11 / fast_pskip=0 / chroma_qp_offset=-3 / threads=6 / lookahead_threads=1 / sliced_threads=0 / nr=0 / decimate=1 / interlaced=0 / bluray_compat=0 / constrained_intra=0 / bframes=10 / b_pyramid=2 / b_adapt=2 / b_bias=0 / direct=3 / weightb=1 / open_gop=0 / weightp=2 / keyint=240 / keyint_min=23 / scenecut=40 / intra_refresh=0 / rc=2pass / mbtree=0 / bitrate=8500 / ratetol=1.0 / qcomp=0.60 / qpmin=0 / qpmax=69 / qpstep=4 / cplxblur=20.0 / qblur=0.5 / ip_ratio=1.40 / pb_ratio=1.30 / aq=2:0.75
Language : English
Default : Yes
Forced : No

Audio #1
ID : 2
Format : AC-3
Format/Info : Audio Coding 3
Mode extension : CM (complete main)
Format settings, Endianness : Big
Codec ID : A_AC3
Duration : 2 h 2 min
Bit rate mode : Constant
Bit rate : 192 kb/s
Channel(s) : 2 channels
Channel positions : Front: L R
Sampling rate : 48.0 kHz
Frame rate : 31.250 FPS (1536 spf)
Compression mode : Lossy
Stream size : 169 MiB (2%)
Title : MVO, Мастер-Тэйп
Language : Russian
Default : Yes
Forced : No

Audio #2
ID : 3
Format : AC-3
Format/Info : Audio Coding 3
Mode extension : CM (complete main)
Format settings, Endianness : Big
Codec ID : A_AC3
Duration : 2 h 2 min
Bit rate mode : Constant
Bit rate : 192 kb/s
Channel(s) : 2 channels
Channel positions : Front: L R
Sampling rate : 48.0 kHz
Frame rate : 31.250 FPS (1536 spf)
Compression mode : Lossy
Stream size : 169 MiB (2%)
Title : MVO, НТВ
Language : Russian
Default : No
Forced : No

Audio #3
ID : 4
Format : AC-3
Format/Info : Audio Coding 3
Mode extension : CM (complete main)
Format settings, Endianness : Big
Codec ID : A_AC3
Duration : 2 h 2 min
Bit rate mode : Constant
Bit rate : 192 kb/s
Channel(s) : 1 channel
Channel positions : Front: C
Sampling rate : 48.0 kHz
Frame rate : 31.250 FPS (1536 spf)
Compression mode : Lossy
Stream size : 169 MiB (2%)
Title : AVO, В.Казаков
Language : Russian
Default : No
Forced : No

Audio #4
ID : 5
Format : AC-3
Format/Info : Audio Coding 3
Mode extension : CM (complete main)
Format settings, Endianness : Big
Codec ID : A_AC3
Duration : 2 h 2 min
Bit rate mode : Constant
Bit rate : 192 kb/s
Channel(s) : 1 channel
Channel positions : Front: C
Sampling rate : 48.0 kHz
Frame rate : 31.250 FPS (1536 spf)
Compression mode : Lossy
Stream size : 169 MiB (2%)
Language : English
Default : No
Forced : No

Text
ID : 6
Format : UTF-8
Codec ID : S_TEXT/UTF8
Codec ID/Info : UTF-8 Plain Text
Language : English
Default : No
Forced : No

Menu
00:00:00.000 : en:00:00:00.000
00:07:52.305 : en:00:07:52.305
00:10:39.639 : en:00:10:39.639
00:15:27.260 : en:00:15:27.260
00:21:19.612 : en:00:21:19.612
00:24:02.941 : en:00:24:02.941
00:26:57.616 : en:00:26:57.616
00:30:47.179 : en:00:30:47.179
00:37:31.916 : en:00:37:31.916
00:40:46.944 : en:00:40:46.944
00:45:08.372 : en:00:45:08.372
00:47:34.185 : en:00:47:34.185
00:50:45.542 : en:00:50:45.542
00:53:26.036 : en:00:53:26.036
00:55:53.183 : en:00:55:53.183
00:57:33.950 : en:00:57:33.950
00:59:59.930 : en:00:59:59.930
01:09:28.331 : en:01:09:28.331
01:11:06.929 : en:01:11:06.929
01:16:33.255 : en:01:16:33.255
01:24:29.398 : en:01:24:29.398
01:26:19.674 : en:01:26:19.674
01:30:25.086 : en:01:30:25.086
01:33:50.959 : en:01:33:50.959
01:34:15.149 : en:01:34:15.149
01:37:24.338 : en:01:37:24.338
01:40:16.177 : en:01:40:16.177
01:43:01.842 : en:01:43:01.842
01:46:42.896 : en:01:46:42.896
01:50:10.437 : en:01:50:10.437
01:54:24.357 : en:01:54:24.357
01:57:22.035 : en:01:57:22.035
02:00:10.537 : en:02:00:10.537

x264

x264 [info]: frame I:1662 Avg QP:14.41 size:161416
x264 [info]: frame P:36902 Avg QP:16.45 size: 73116
x264 [info]: frame B:138120 Avg QP:18.32 size: 35209
x264 [info]: consecutive B-frames: 1.6% 2.5% 6.8% 19.9% 20.8% 34.9% 6.9% 4.4% 0.9% 1.0% 0.3%

Скриншоты


Скачать The_Getaway.1972.BDRip.720p.denis100.torrent

просмотры: 4

Post Comment