Зарубежные фильмы Комедия

Kingsman: Золотое кольцо / Kingsman: The Golden Circle (2017) BDRip-AVC от New-Team | iTunes



Группа New-Team ВКонтакте
Подписывайтесь так же на мою группу ВКонтакте stalkerok | AVC рипы
Ссылка в группе New-Team
Присоединяйтесь!


Kingsman: Золотое кольцо
Kingsman: The Golden Circle

«Reports of my death have been greatly exaggerated»


Страна: Великобритания, США
Жанр: боевик, комедия, приключения

Год выпуска: 2017
Продолжительность: 02:21:02

Перевод: Профессиональный (полное дублирование) [iTunes]
Субтитры: русские (форсированные, полные), английские (полные, SDH, SDH цветные)
Оригинальная аудиодорожка: английский

Режиссер: Мэттью Вон / Matthew Vaughn

В ролях: Тэрон Эджертон, Колин Фёрт, Марк Стронг, Джулианна Мур, Холли Берри, Педро Паскаль, Ченнинг Татум, Джефф Бриджес, Эдвард Холкрофт, Ханна Альстрём, Гордон Александр, Кэлвин Демба

Описание:
Когда штаб-квартиры секретной службы Kingsman уничтожены, и весь мир оказался в заложниках у неизвестных, британские суперагенты обнаруживают, что в один день вместе с их организацией была еще создана американская разведка — Statesman. Теперь эти две элитные спецслужбы должны объединиться и бросить вызов общему безжалостному врагу, чтобы спасти мир, то есть заняться тем, что для Эггси становится обычным делом…

Релиз:

Автор рипа: stalkerok

Сэмпл

Качество видео: BDRip-AVC [Kingsman: The Golden Circle (2017) Blu-ray Disc -BLUEBIRD]
Формат видео: MKV
Видео кодек: AVC
Аудио кодек: AC3
Видео: 1548 Кбит/сек, 960×402 (2.40:1), 23,976 кадр/сек, AVC
Аудио №1: русский, 384 Кбит/сек, 48 КГц, 5.1, AC3
Аудио №2: английский, 192 Кбит/сек, 48 КГц, 2.0, AC3
Навигация по главам: есть

x264/MediaInfo

—[Information] [29.12.2017 17:31:48] x264 [info]: frame I:2060 Avg QP:17.84 size: 54263
—[Information] [29.12.2017 17:31:48] x264 [info]: frame P:48752 Avg QP:20.40 size: 16335
—[Information] [29.12.2017 17:31:48] x264 [info]: frame B:152079 Avg QP:22.61 size: 4800

General
Unique ID : 242086721853805461936603305034984649345 (0xB62034E8B2813BC292F202501636F281)
Complete name : M:$newKingsman The Golden Circle (2017)Kingsman.The.Golden.Circle.2017.BDRip-AVC.RUS..stalkerok.new-team.mkv
Format : Matroska
Format version : Version 4 / Version 2
File size : 2.10 GiB
Duration : 2 h 21 min
Overall bit rate : 2 127 kb/s
Movie name : Kingsman: The Golden Circle (2017) (Rip by stalkerok)
Encoded date : UTC 2017-12-29 15:27:33
Writing application : mkvmerge v8.6.1 ('Flying') 64bit
Writing library : libebml v1.3.3 + libmatroska v1.4.4

Video
ID : 1
Format : AVC
Format/Info : Advanced Video Codec
Format profile : [email protected]
Format settings, CABAC : Yes
Format settings, ReFrames : 16 frames
Codec ID : V_MPEG4/ISO/AVC
Duration : 2 h 21 min
Bit rate : 1 549 kb/s
Width : 960 pixels
Height : 402 pixels
Display aspect ratio : 2.40:1
Frame rate mode : Constant
Frame rate : 23.976 (24000/1001) FPS
Color space : YUV
Chroma subsampling : 4:2:0
Bit depth : 8 bits
Scan type : Progressive
Bits/(Pixel*Frame) : 0.167
Stream size : 1.53 GiB (73%)
Title : Kingsman: The Golden Circle (2017) (Rip by stalkerok)
Writing library : x264 core 152 r2851kMod ba24899
Encoding settings : cabac=1 / ref=16 / deblock=1:-3:-2 / analyse=0x3:0x133 / me=umh / subme=11 / psy=1 / fade_compensate=0.00 / psy_rd=1.00:0.00 / mixed_ref=1 / me_range=32 / chroma_me=1 / trellis=2 / 8x8dct=1 / cqm=0 / deadzone=21,11 / fast_pskip=0 / chroma_qp_offset=-2 / threads=12 / lookahead_threads=3 / sliced_threads=0 / nr=0 / decimate=1 / interlaced=0 / bluray_compat=0 / constrained_intra=0 / bframes=16 / b_pyramid=2 / b_adapt=2 / b_bias=0 / direct=3 / weightb=1 / open_gop=0 / weightp=2 / keyint=240 / keyint_min=23 / scenecut=40 / intra_refresh=0 / rc_lookahead=60 / rc=crf / mbtree=0 / crf=18.7000 / qcomp=0.65 / qpmin=0 / qpmax=69 / qpstep=4 / vbv_maxrate=50000 / vbv_bufsize=62500 / crf_max=0.0 / nal_hrd=none / filler=0 / ip_ratio=1.35 / pb_ratio=1.25 / aq=3:0.85 / zones=194518,202890,q=36
Default : Yes
Forced : No

Audio #1
ID : 2
Format : AC-3
Format/Info : Audio Coding 3
Mode extension : CM (complete main)
Format settings, Endianness : Big
Codec ID : A_AC3
Duration : 2 h 21 min
Bit rate mode : Constant
Bit rate : 384 kb/s
Channel(s) : 6 channels
Channel positions : Front: L C R, Side: L R, LFE
Sampling rate : 48.0 kHz
Frame rate : 31.250 FPS (1536 spf)
Compression mode : Lossy
Stream size : 387 MiB (18%)
Language : Russian
Default : Yes
Forced : No

Audio #2
ID : 5
Format : AC-3
Format/Info : Audio Coding 3
Mode extension : CM (complete main)
Format settings, Endianness : Big
Codec ID : A_AC3
Duration : 2 h 21 min
Bit rate mode : Constant
Bit rate : 192 kb/s
Channel(s) : 2 channels
Channel positions : Front: L R
Sampling rate : 48.0 kHz
Frame rate : 31.250 FPS (1536 spf)
Compression mode : Lossy
Stream size : 194 MiB (9%)
Language : English
Default : No
Forced : No

Text #1
ID : 3
Format : UTF-8
Codec ID : S_TEXT/UTF8
Codec ID/Info : UTF-8 Plain Text
Duration : 1 h 21 min
Bit rate : 0 b/s
Count of elements : 13
Stream size : 365 Bytes (0%)
Title : forced
Language : Russian
Default : Yes
Forced : No

Text #2
ID : 4
Format : UTF-8
Codec ID : S_TEXT/UTF8
Codec ID/Info : UTF-8 Plain Text
Duration : 2 h 13 min
Bit rate : 91 b/s
Count of elements : 1847
Stream size : 89.3 KiB (0%)
Language : Russian
Default : No
Forced : No

Text #3
ID : 6
Format : UTF-8
Codec ID : S_TEXT/UTF8
Codec ID/Info : UTF-8 Plain Text
Duration : 2 h 13 min
Bit rate : 55 b/s
Count of elements : 1876
Stream size : 54.1 KiB (0%)
Language : English
Default : No
Forced : No

Text #4
ID : 7
Format : UTF-8
Codec ID : S_TEXT/UTF8
Codec ID/Info : UTF-8 Plain Text
Duration : 2 h 13 min
Bit rate : 60 b/s
Count of elements : 2136
Stream size : 58.8 KiB (0%)
Title : SDH
Language : English
Default : No
Forced : No

Text #5
ID : 8
Format : UTF-8
Codec ID : S_TEXT/UTF8
Codec ID/Info : UTF-8 Plain Text
Duration : 2 h 13 min
Bit rate : 96 b/s
Count of elements : 2136
Stream size : 93.7 KiB (0%)
Title : SDH Colored
Language : English
Default : No
Forced : No

Menu
00:00:00.000 : en:Chapter 1
00:04:51.958 : en:Chapter 2
00:09:39.453 : en:Chapter 3
00:13:36.607 : en:Chapter 4
00:18:54.299 : en:Chapter 5
00:24:57.287 : en:Chapter 6
00:28:43.346 : en:Chapter 7
00:32:52.303 : en:Chapter 8
00:39:18.731 : en:Chapter 9
00:43:21.849 : en:Chapter 10
00:48:26.570 : en:Chapter 11
00:53:54.105 : en:Chapter 12
00:58:31.257 : en:Chapter 13
01:05:04.901 : en:Chapter 14
01:09:52.521 : en:Chapter 15
01:13:34.743 : en:Chapter 16
01:19:41.860 : en:Chapter 17
01:23:45.103 : en:Chapter 18
01:28:55.288 : en:Chapter 19
01:33:25.224 : en:Chapter 20
01:40:14.758 : en:Chapter 21
01:45:03.255 : en:Chapter 22
01:49:38.488 : en:Chapter 23
01:55:15.992 : en:Chapter 24
02:01:40.835 : en:Chapter 25
02:05:44.036 : en:Chapter 26
02:12:36.406 : en:Chapter 27
02:15:15.273 : en:Chapter 28


Скачать Kingsman.The.Golden.Circle.2017.BDRip-AVC.RUS…torrent

просмотры: 7

Post Comment