Военный Зарубежные фильмы

Империя Солнца / Empire of the Sun (1987) BDRip–AVC от MediaClub | D, P, A

Информация о фильме
Название: Империя Солнца
Оригинальное название: Empire of the Sun
Год выхода: 1987
Жанр: Военный, драма
Режиссер: Стивен Спилберг
В ролях: Кристиан Бэйл, Джон Малкович, Миранда Ричардсон, Найджел Хэверс, Джо Пантолиано, Лесли Филлипс, Масато Ибу, Эмили Ричард, Руперт Фрейзер, Питер Гэйл, Такаторо Катаока, Бен Стиллер, Дэвид Найдорф, Ральф Сеймур, Роберт Стивенс, Чжай Найшэ, Гуц Исимацу, Эмма Пайпер, Джеймс Уолкер, Анна Тернер, Энн Кастл, Ральф Майкл, Сибил Маас, Эрик Флинн, Джеймс Грин, Саймон Харрисон, Барри Хотон, Паула Хэмилтон

О фильме: 1941 год, Вторая Мировая война. Юный англичанин Джим Грэхем живёт в богатой семье в Китае. Японцы вторглись в Шанхай, Джим теряется в толпе и остаётся без родителей в захваченном городе. Во время скитаний находит друга Бэйзи, с которым попадает в лагерь заключённых. Среди болезни и нехватки пищи, Джим борется за выживание, вынося предательства и оскорбления… Нити, связывающие его с детством, ослабевают, но Джим пытается сохранить дух и достоинство. Япония капитулировала. Перенеся все ужасы войны, превратившись из счастливого ребенка в измученного подростка, он, наконец, встречается со своими родителями.

Страна: США
Студия: Amblin Entertainment, Warner Bros. Pictures
Продолжительность: 02:32:49
Перевод: Дублированный, профессиональный многоголосый, авторский одноголосый (Володарский), (Рябов), украинский

Файл
Качество: BDRip-AVC
Видео: MPEG-4 AVC, 3400 Кбит/с, 1024х576, 23.976 кадр/с
Звук:
Аудио #1: Русский (AC3, 6 ch, 448 Кбит/с) / Дублированный
Аудио #2: Русский (AC3, 2 ch, 192 Кбит/с) / Профессиональный многоголосый
Аудио #3: Русский (AC3, 2 ch, 192 Кбит/с) / Авторский одноголосый (Володарский)
Аудио #4: Русский (AC3, 6 ch, 448 Кбит/с) / Авторский одноголосый (Рябов)
Аудио #5: Украинский (AC3, 6 ch, 448 Кбит/с) / Профессиональный многоголосый (1+1)
Аудио #6: Английский (AC3, 6 ch, 448 Кбит/с)
Субтитры: Русские, английские (SDH)

Семпл

MediaInfo:
Общее
Уникальный идентификатор : 253878722022818625816327917821059641748 (0xBEFF43678A56F2BDB793DE8C4D27B194)
Полное имя : D:Мои РипыImperia.solnca.1987.x264.BDRip.AVC.MediaClub .mkv
Формат : Matroska
Версия формата : Version 4 / Version 2
Размер файла : 5,96 Гбайт
Продолжительность : 2 ч. 32 м.
Общий поток : 5580 Кбит/сек
Название фильма : = MediaClub = rip by krakatuq
Дата кодирования : UTC 2014-03-12 21:59:20
Программа кодирования : mkvmerge v6.6.0 ('The Edge Of The In Between') built on Dec 1 2013 17:55:00
Библиотека кодирования : libebml v1.3.0 + libmatroska v1.4.1

Видео
Идентификатор : 1
Формат : AVC
Формат/Информация : Advanced Video Codec
Профиль формата : [email protected]
Параметр CABAC формата : Да
Параметр ReFrames формата : 11 кадров
Идентификатор кодека : V_MPEG4/ISO/AVC
Продолжительность : 2 ч. 32 м.
Битрейт : 3293 Кбит/сек
Номинальный битрейт : 3500 Кбит/сек
Ширина : 1024 пикселя
Высота : 576 пикселей
Соотношение сторон : 16:9
Режим частоты кадров : Постоянный
Частота кадров : 23,976 кадра/сек
Цветовое пространство : YUV
Субдискретизация насыщенности : 4:2:0
Битовая глубина : 8 бит
Тип развёртки : Прогрессивная
Бит/(Пиксели*Кадры) : 0.233
Размер потока : 3,52 Гбайт (59%)
Заголовок : Imperia.solnca.1987.x264.BDRip.AVC.MediaClub
Библиотека кодирования : x264 core 130 r2273 b3065e6
Настройки программы : cabac=1 / ref=11 / deblock=1:-2:-2 / analyse=0x3:0x133 / me=umh / subme=11 / psy=1 / psy_rd=1.00:0.10 / mixed_ref=1 / me_range=32 / chroma_me=1 / trellis=2 / 8x8dct=1 / cqm=0 / deadzone=21,11 / fast_pskip=0 / chroma_qp_offset=-3 / threads=3 / lookahead_threads=1 / sliced_threads=0 / nr=0 / decimate=0 / interlaced=0 / bluray_compat=0 / constrained_intra=0 / bframes=8 / b_pyramid=2 / b_adapt=2 / b_bias=0 / direct=3 / weightb=1 / open_gop=0 / weightp=2 / keyint=240 / keyint_min=23 / scenecut=40 / intra_refresh=0 / rc=2pass / mbtree=0 / bitrate=3500 / ratetol=1.0 / qcomp=0.60 / qpmin=0 / qpmax=69 / qpstep=4 / cplxblur=20.0 / qblur=0.5 / ip_ratio=1.40 / pb_ratio=1.30 / aq=1:1.00
Язык : English
Default : Да
Forced : Нет

Аудио #1
Идентификатор : 2
Формат : AC-3
Формат/Информация : Audio Coding 3
Расширение режима : CM (complete main)
Параметр Endianness формата : Big
Идентификатор кодека : A_AC3
Продолжительность : 2 ч. 32 м.
Вид битрейта : Постоянный
Битрейт : 448 Кбит/сек
Каналы : 6 каналов
Расположение каналов : Front: L C R, Side: L R, LFE
Частота : 48,0 КГц
Битовая глубина : 16 бит
Метод сжатия : С потерями
Размер потока : 490 Мбайт (8%)
Заголовок : TRACK_01_DUB_RUS
Язык : Russian
Default : Да
Forced : Да

Аудио #2
Идентификатор : 3
Формат : AC-3
Формат/Информация : Audio Coding 3
Расширение режима : CM (complete main)
Параметр Endianness формата : Big
Идентификатор кодека : A_AC3
Продолжительность : 2 ч. 32 м.
Вид битрейта : Постоянный
Битрейт : 192 Кбит/сек
Каналы : 2 канала
Расположение каналов : Front: L R
Частота : 48,0 КГц
Битовая глубина : 16 бит
Метод сжатия : С потерями
Размер потока : 210 Мбайт (3%)
Заголовок : TRACK_02_MVO_RUS
Язык : Russian
Default : Нет
Forced : Нет

Аудио #3
Идентификатор : 4
Формат : AC-3
Формат/Информация : Audio Coding 3
Расширение режима : CM (complete main)
Параметр Endianness формата : Big
Идентификатор кодека : A_AC3
Продолжительность : 2 ч. 32 м.
Вид битрейта : Постоянный
Битрейт : 192 Кбит/сек
Каналы : 2 канала
Расположение каналов : Front: L R
Частота : 48,0 КГц
Битовая глубина : 16 бит
Метод сжатия : С потерями
Размер потока : 210 Мбайт (3%)
Заголовок : TRACK_03_AVO_RUS_VOLODARSKIY
Язык : Russian
Default : Нет
Forced : Нет

Аудио #4
Идентификатор : 5
Формат : AC-3
Формат/Информация : Audio Coding 3
Расширение режима : CM (complete main)
Параметр Endianness формата : Big
Идентификатор кодека : A_AC3
Продолжительность : 2 ч. 32 м.
Вид битрейта : Постоянный
Битрейт : 448 Кбит/сек
Каналы : 6 каналов
Расположение каналов : Front: L C R, Side: L R, LFE
Частота : 48,0 КГц
Битовая глубина : 16 бит
Метод сжатия : С потерями
Размер потока : 490 Мбайт (8%)
Заголовок : TRACK_04_AVO_RUS_RYABOV
Язык : Russian
Default : Нет
Forced : Нет

Аудио #5
Идентификатор : 6
Формат : AC-3
Формат/Информация : Audio Coding 3
Расширение режима : CM (complete main)
Параметр Endianness формата : Big
Идентификатор кодека : A_AC3
Продолжительность : 2 ч. 32 м.
Вид битрейта : Постоянный
Битрейт : 448 Кбит/сек
Каналы : 6 каналов
Расположение каналов : Front: L C R, Side: L R, LFE
Частота : 48,0 КГц
Битовая глубина : 16 бит
Метод сжатия : С потерями
Размер потока : 490 Мбайт (8%)
Заголовок : TRACK_05_MVO_UKR
Язык : Ukrainian
Default : Нет
Forced : Нет

Аудио #6
Идентификатор : 7
Формат : AC-3
Формат/Информация : Audio Coding 3
Расширение режима : CM (complete main)
Параметр Endianness формата : Big
Идентификатор кодека : A_AC3
Продолжительность : 2 ч. 32 м.
Вид битрейта : Постоянный
Битрейт : 448 Кбит/сек
Каналы : 6 каналов
Расположение каналов : Front: L C R, Side: L R, LFE
Частота : 48,0 КГц
Битовая глубина : 16 бит
Метод сжатия : С потерями
Размер потока : 490 Мбайт (8%)
Заголовок : TRACK_06_ORIGINAL_ENG
Язык : English
Default : Нет
Forced : Нет

Текст #1
Идентификатор : 8
Формат : UTF-8
Идентификатор кодека : S_TEXT/UTF8
Идентификатор кодека/Информация : UTF-8 Plain Text
Заголовок : TEXT_01_SUB_RUS
Язык : Russian
Default : Нет
Forced : Нет

Текст #2
Идентификатор : 9
Формат : UTF-8
Идентификатор кодека : S_TEXT/UTF8
Идентификатор кодека/Информация : UTF-8 Plain Text
Заголовок : TEXTt_02_SUB_ENG
Язык : English
Default : Нет
Forced : Нет

Меню
00:00:00.000 : en:Foreword
00:01:14.574 : en:The Choirboy
00:04:19.717 : en:Luckier
00:07:44.380 : en:Upward Dreams
00:09:22.520 : en:Partygoer Procession
00:13:19.215 : en:Hospitality
00:15:32.222 : en:Engaging the Enemy
00:20:46.286 : en:Shanghai: December 8, 1941
00:23:34.996 : en:Lost in the Crowd
00:28:02.764 : en:Plunderers
00:32:15.141 : en:Home Alone
00:36:41.240 : en:English Boy Surrenders
00:41:46.253 : en:Making Frank's Acquaintance
00:43:50.044 : en:Shanghai Jim
00:49:00.854 : en:Journey to Opulence
00:52:23.932 : en:New Occupants
00:54:19.256 : en:Chow Time
01:01:03.910 : en:The Truck to Soochow
01:05:38.392 : en:One With the Planes
01:08:21.097 : en:Kindred Spirits
01:09:55.858 : en:Tricks of the Trade
01:13:44.837 : en:The Antidote
01:16:20.701 : en:New World: Pragmatist
01:20:20.315 : en:The University of Life
01:24:16.509 : en:Night Bombing
01:26:56.586 : en:Reprisal
01:30:19.455 : en:Setting the Traps
01:37:04.902 : en:In America Now
01:39:23.958 : en:Nagata's Revenge on Basie
01:42:58.839 : en:Lords of the Yangtze
01:47:11.007 : en:Basie Returns
01:48:50.440 : en:Kamikaze Dawn
01:52:21.234 : en:Bombs and Rapture
01:57:23.411 : en:Return to the British Dorm
01:59:08.641 : en:Broken Promise
02:01:27.571 : en:Failed Mission
02:03:14.428 : en:March to Nantao
02:05:00.451 : en:The Olympic Stadium
02:07:16.003 : en:"Pretend You're Dead"
02:09:11.910 : en:Heavenly Light
02:12:12.007 : en:Reunions
02:16:22.299 : en:"I Can Bring Everyone Back"
02:20:10.276 : en:"I Surrender"
02:22:10.772 : en:Tired Eyes
02:26:17.810 : en:End Credits

x264 log:
x264 [info]: frame I:1341 Avg QP:16.50 size: 90456
x264 [info]: frame P:48511 Avg QP:19.48 size: 36340
x264 [info]: frame B:163823 Avg QP:20.91 size: 12294

О релизе:
• Сохранены и подписаны оригинальные чаптеры как на Blu-ray.

• Дорога #3 Авторский одноголосый (Володарский) наложен на французский дубляж. Дорога низкого качества, добавлена для ознакомления.

• За помощь в подготовке релиза спасибо КонстантинуPainter и Виталиюneni

• За постер спасибо Иннеcookies от Media-Art-Club

Скриншоты


Релиз от:

Автор рипа: krakatuq


Скачать Imperia.solnca.1987.x264.BDRip.AVC.MediaClub_.m.torrent

просмотры: 0

Post Comment