Вестерн Зарубежные фильмы

Тёмная башня / The Dark Tower (2017) BDRip 1080p от New-Team & qqss44 | Лицензия




Мы "ВКОНТАКТЕ"



Информация о фильме
Название: Тёмная башня
Оригинальное название: The Dark Tower
Год выпуска: 2017
Жанр: Ужасы, фантастика, фэнтези, боевик, приключения, вестерн
Режиссер: Николай Арсель
В ролях: Идрис Эльба, Мэттью МакКонахи, Том Тейлор, Клаудия Ким, Фрэн Кренц, Эбби Ли, Джеки Эрл Хейли, Кэтрин Уинник, Дэннис Хэйсбёрт, Майкл Барбиери

О фильме:
Наш мир — не единственный из существующих. Заклятые враги Роланд Дискейн, последний из ордена стрелков, и Уолтер О’Дим, известный также как Человек в черном, ведут извечную борьбу. На кону — мифическая Темная Башня, последний оплот и надежда вселенной, без которой мир будет повержен в полный хаос и разрушение. Силам добра и зла суждено столкнуться в последней схватке, ведь Роланд Дискейн — единственный, кому под силу остановить Человека в черном, прежде чем тот разрушит Темную Башню.

Страна: США
Студия: Imagine Entertainment, Media Rights Capital, Sony Pictures Entertainment (SPE), Weed Road Pictures
Продолжительность: 01:34:44
Перевод: Дублированный | Лицензия

Файл
Формат: MKV, BDRip 1080p
Видео: MPEG-4 AVC, 10430 Кбит/с, 1920×800
Aудио#1: [RUS] AC3 | 48 KHz | 5.1 (Front: L С R Side: L R) + LFE | ~640 kbps
Aудио#2: [ENG] AC3 | 48 KHz | 5.1 (Front: L С R Side: L R) + LFE | ~640 kbps
Субтитры: русские (форсированные и полные), английские (полные)
Релиз от:

Скриншоты


МИ

Общее
Уникальный идентификатор : 229356603259155093117874179878112446362 (0xAC8C799AA59DA74EB93572710483C79A)
Полное имя : X:0000The.Dark.Tower.(2017).BDRip.1080p.(qqss44).mkv
Формат : Matroska
Версия формата : Version 2
Размер файла : 7,75 Гбайт
Продолжительность : 1 ч. 34 м.
Общий поток : 11,7 Мбит/сек
Дата кодирования : UTC 2017-11-18 08:42:56
Программа кодирования : mkvmerge v5.8.0 ('No Sleep / Pillow') built on Sep 2 2012 15:37:04
Библиотека кодирования : libebml v1.2.3 + libmatroska v1.3.0

Видео
Идентификатор : 1
Формат : AVC
Формат/Информация : Advanced Video Codec
Профиль формата : [email protected]
Параметр CABAC формата : Да
Параметр ReFrames формата : 5 кадров
Идентификатор кодека : V_MPEG4/ISO/AVC
Продолжительность : 1 ч. 34 м.
Битрейт : 10,4 Мбит/сек
Ширина : 1920 пикселей
Высота : 800 пикселей
Соотношение сторон : 2,40:1
Режим частоты кадров : Постоянный
Частота кадров : 23,976 (24000/1001) кадра/сек
Цветовое пространство : YUV
Субдискретизация насыщенности : 4:2:0
Битовая глубина : 8 бит
Тип развёртки : Прогрессивная
Бит/(Пиксели*Кадры) : 0.283
Размер потока : 6,75 Гбайт (87%)
Библиотека кодирования : x264 core 152 r2851kMod ba24899
Настройки программы : cabac=1 / ref=5 / deblock=1:-3:-3 / analyse=0x3:0x113 / me=umh / subme=11 / psy=1 / fade_compensate=0.00 / psy_rd=1.00:0.00 / mixed_ref=1 / me_range=32 / chroma_me=1 / trellis=2 / 8x8dct=1 / cqm=0 / deadzone=21,11 / fast_pskip=0 / chroma_qp_offset=-2 / threads=12 / lookahead_threads=2 / sliced_threads=0 / nr=0 / decimate=0 / interlaced=0 / bluray_compat=0 / constrained_intra=0 / bframes=9 / b_pyramid=2 / b_adapt=2 / b_bias=0 / direct=3 / weightb=1 / open_gop=0 / weightp=2 / keyint=240 / keyint_min=23 / scenecut=40 / intra_refresh=0 / rc_lookahead=40 / rc=2pass / mbtree=0 / bitrate=10430 / ratetol=1.0 / qcomp=0.65 / qpmin=0 / qpmax=69 / qpstep=4 / cplxblur=20.0 / qblur=0.5 / vbv_maxrate=50000 / vbv_bufsize=62500 / nal_hrd=none / filler=0 / ip_ratio=1.40 / pb_ratio=1.30 / aq=3:0.70
Язык : English
Default : Да
Forced : Нет

Аудио #1
Идентификатор : 2
Формат : AC-3
Формат/Информация : Audio Coding 3
Расширение режима : CM (complete main)
Параметр Endianness формата : Big
Идентификатор кодека : A_AC3
Продолжительность : 1 ч. 34 м.
Вид битрейта : Постоянный
Битрейт : 640 Кбит/сек
Каналы : 6 каналов
Расположение каналов : Front: L C R, Side: L R, LFE
Частота : 48,0 КГц
Частота кадров : 31,250 кадров/сек (1536 spf)
Метод сжатия : С потерями
Размер потока : 434 Мбайт (5%)
Язык : Russian
Default : Да
Forced : Нет

Аудио #2
Идентификатор : 3
Формат : AC-3
Формат/Информация : Audio Coding 3
Расширение режима : CM (complete main)
Параметр Endianness формата : Big
Идентификатор кодека : A_AC3
Продолжительность : 1 ч. 34 м.
Вид битрейта : Постоянный
Битрейт : 640 Кбит/сек
Каналы : 6 каналов
Расположение каналов : Front: L C R, Side: L R, LFE
Частота : 48,0 КГц
Частота кадров : 31,250 кадров/сек (1536 spf)
Метод сжатия : С потерями
Размер потока : 434 Мбайт (5%)
Язык : English
Default : Нет
Forced : Нет

Текст #1
Идентификатор : 4
Формат : UTF-8
Идентификатор кодека : S_TEXT/UTF8
Идентификатор кодека/Информация : UTF-8 Plain Text
Заголовок : FORCED
Язык : Russian
Default : Да
Forced : Нет

Текст #2
Идентификатор : 5
Формат : UTF-8
Идентификатор кодека : S_TEXT/UTF8
Идентификатор кодека/Информация : UTF-8 Plain Text
Заголовок : FULL
Язык : Russian
Default : Нет
Forced : Нет

Текст #3
Идентификатор : 6
Формат : UTF-8
Идентификатор кодека : S_TEXT/UTF8
Идентификатор кодека/Информация : UTF-8 Plain Text
Заголовок : FULL
Язык : English
Default : Нет
Forced : Нет

Меню
00:00:00.000 : en:00:00:00.000
00:05:51.643 : en:00:05:51.643
00:10:36.094 : en:00:10:36.094
00:16:33.618 : en:00:16:33.618
00:21:54.897 : en:00:21:54.897
00:25:35.534 : en:00:25:35.534
00:31:01.985 : en:00:31:01.985
00:36:25.183 : en:00:36:25.183
00:40:49.822 : en:00:40:49.822
00:46:02.134 : en:00:46:02.134
00:53:18.404 : en:00:53:18.404
00:58:42.853 : en:00:58:42.853
01:03:51.119 : en:01:03:51.119
01:10:37.650 : en:01:10:37.650
01:15:53.174 : en:01:15:53.174
01:21:15.204 : en:01:21:15.204


Скачать The.Dark.Tower.2017.BDRip.1080p.qqss44.mkv.torrent

просмотры: 5

Post Comment