Детектив Зарубежные фильмы

Остров проклятых / Shutter Island (2010) BDRip-HEVC 1080p | D

Информация о фильме
Название: Остров проклятых
Оригинальное название: Shutter Island
Год выхода: 2010
Жанр: Триллер, драма, детектив
Режиссер: Мартин Скорсезе
В ролях: Леонардо ДиКаприо, Марк Руффало, Бен Кингсли, Макс фон Сюдов, Мишель Уильямс, Эмили Мортимер, Патриция Кларксон, Джеки Эрл Хейли, Тед Левайн, Джон Кэрролл Линч

О фильме:
Два американских судебных пристава отправляются на один из островов в штате Массачусетс, чтобы расследовать исчезновение пациентки клиники для умалишенных преступников. При проведении расследования им придется столкнуться с паутиной лжи, обрушившимся ураганом и смертельным бунтом обитателей клиники.

Страна: США
Продолжительность: 02:18:04
Перевод: Профессиональный (полное дублирование)

Файл
Кодек: HEVC x265 10bit
Качество: BDRip-HEVC 1080p
Видео: 1920×816, 23.976 кадр/сек, 6724 Кбит/сек, (Main [email protected]@High) 10bit
Звук:
Аудио1: Русская, AC3 448 Кбит/сек, 6 канала(ов),16bit 48,0 КГц (Blu-Ray RUS)
Аудио2: English, AC3 448 Кбит/сек, 6 канала(ов),16bit 48,0 КГц
Субтитры: Русские, English
Навигация по главам: Есть

Mediainfo
General
Unique ID : 230845510736679616167913069793644163060 (0xADAB3A690E1B2BFB899BCDE42B88AFF4)
Complete name : F:HEVCShutter Island (2010) BDRip 1080p [HEVC] 10Bit.mkv
Format : Matroska
Format version : Version 4 / Version 2
File size : 7.35 GiB
Duration : 2 h 18 min
Overall bit rate : 7 623 kb/s
Movie name : rip_by_Cthulhu
Encoded date : UTC 2017-12-24 09:42:26
Writing application : mkvmerge v18.0.0 ('Apricity') 64-bit
Writing library : libebml v1.3.5 + libmatroska v1.4.8
Cover : Yes
Attachments : cover.jpg

Video
ID : 1
Format : HEVC
Format/Info : High Efficiency Video Coding
Format profile : Main [email protected]@High
Codec ID : V_MPEGH/ISO/HEVC
Duration : 2 h 18 min
Bit rate : 6 724 kb/s
Width : 1 920 pixels
Height : 816 pixels
Display aspect ratio : 2.35:1
Frame rate mode : Constant
Frame rate : 23.976 (24000/1001) FPS
Color space : YUV
Chroma subsampling : 4:2:0
Bit depth : 10 bits
Bits/(Pixel*Frame) : 0.179
Stream size : 6.49 GiB (88%)
Writing library : x265 2.6+8-fc0570b8d8f9:[Windows][GCC 7.1.0][64 bit] 10bit
Encoding settings : cpuid=1050111 / frame-threads=5 / numa-pools=4 / wpp / no-pmode / no-pme / no-psnr / no-ssim / log-level=3 / input-csp=1 / input-res=1920×816 / interlace=0 / total-frames=0 / level-idc=51 / high-tier=1 / uhd-bd=0 / ref=5 / no-allow-non-conformance / no-repeat-headers / annexb / no-aud / no-hrd / info / hash=0 / no-temporal-layers / open-gop / min-keyint=24 / keyint=240 / gop-lookahead=0 / bframes=10 / b-adapt=2 / b-pyramid / bframe-bias=0 / rc-lookahead=40 / lookahead-slices=5 / scenecut=40 / no-intra-refresh / ctu=64 / min-cu-size=8 / no-rect / no-amp / max-tu-size=32 / tu-inter-depth=3 / tu-intra-depth=3 / limit-tu=0 / rdoq-level=1 / dynamic-rd=0.00 / no-ssim-rd / signhide / no-tskip / nr-intra=0 / nr-inter=0 / no-constrained-intra / no-strong-intra-smoothing / max-merge=3 / limit-refs=3 / no-limit-modes / me=2 / subme=6 / merange=57 / temporal-mvp / weightp / weightb / no-analyze-src-pics / deblock=-3:-3 / no-sao / no-sao-non-deblock / rd=4 / no-early-skip / rskip / no-fast-intra / no-tskip-fast / no-cu-lossless / no-b-intra / no-splitrd-skip / rdpenalty=0 / psy-rd=2.00 / psy-rdoq=0.00 / no-rd-refine / analysis-reuse-mode=0 / no-lossless / cbqpoffs=0 / crqpoffs=0 / rc=crf / crf=18.0 / qcomp=0.60 / qpstep=4 / stats-write=0 / stats-read=0 / vbv-maxrate=50000 / vbv-bufsize=50000 / vbv-init=0.9 / crf-max=30.0 / crf-min=0.0 / ipratio=1.40 / pbratio=1.30 / aq-mode=1 / aq-strength=1.00 / cutree / zone-count=0 / no-strict-cbr / qg-size=32 / no-rc-grain / qpmax=69 / qpmin=0 / no-const-vbv / sar=1 / overscan=0 / videoformat=5 / range=0 / colorprim=1 / transfer=1 / colormatrix=1 / chromaloc=0 / display-window=0 / max-cll=0,0 / min-luma=0 / max-luma=1023 / log2-max-poc-lsb=8 / vui-timing-info / vui-hrd-info / slices=1 / no-opt-qp-pps / no-opt-ref-list-length-pps / no-multi-pass-opt-rps / scenecut-bias=0.05 / no-opt-cu-delta-qp / no-aq-motion / no-hdr / no-hdr-opt / no-dhdr10-opt / analysis-reuse-level=5 / scale-factor=0 / refine-intra=0 / refine-inter=0 / refine-mv=0 / no-limit-sao / ctu-info=0 / no-lowpass-dct / refine-mv-type=0 / copy-pic=1
Language : English
Default : Yes
Forced : No
Color range : Limited
Color primaries : BT.709
Transfer characteristics : BT.709
Matrix coefficients : BT.709

Audio #1
ID : 2
Format : AC-3
Format/Info : Audio Coding 3
Format settings, Endianness : Big
Codec ID : A_AC3
Duration : 2 h 18 min
Bit rate mode : Constant
Bit rate : 448 kb/s
Channel(s) : 6 channels
Channel positions : Front: L C R, Side: L R, LFE
Sampling rate : 48.0 kHz
Frame rate : 31.250 FPS (1536 SPF)
Bit depth : 16 bits
Compression mode : Lossy
Stream size : 442 MiB (6%)
Language : Russian
Service kind : Complete Main
Default : Yes
Forced : No

Audio #2
ID : 3
Format : AC-3
Format/Info : Audio Coding 3
Format settings, Endianness : Big
Codec ID : A_AC3
Duration : 2 h 18 min
Bit rate mode : Constant
Bit rate : 448 kb/s
Channel(s) : 6 channels
Channel positions : Front: L C R, Side: L R, LFE
Sampling rate : 48.0 kHz
Frame rate : 31.250 FPS (1536 SPF)
Bit depth : 16 bits
Compression mode : Lossy
Stream size : 442 MiB (6%)
Language : English
Service kind : Complete Main
Default : No
Forced : No

Text #1
ID : 4
Format : UTF-8
Codec ID : S_TEXT/UTF8
Codec ID/Info : UTF-8 Plain Text
Duration : 2 h 9 min
Bit rate : 88 b/s
Count of elements : 1581
Stream size : 84.0 KiB (0%)
Language : Russian
Default : Yes
Forced : No

Text #2
ID : 5
Format : UTF-8
Codec ID : S_TEXT/UTF8
Codec ID/Info : UTF-8 Plain Text
Duration : 2 h 8 min
Bit rate : 61 b/s
Count of elements : 1655
Stream size : 57.7 KiB (0%)
Language : English
Default : No
Forced : No

Menu
00:00:00.000 : :00:00:00.000
00:06:33.143 : :00:06:33.143
00:13:07.787 : :00:13:07.787
00:20:20.928 : :00:20:20.928
00:26:35.636 : :00:26:35.636
00:34:54.801 : :00:34:54.801
00:41:23.523 : :00:41:23.523
00:48:29.573 : :00:48:29.573
00:55:17.898 : :00:55:17.898
01:04:02.672 : :01:04:02.672
01:10:05.410 : :01:10:05.410
01:16:54.401 : :01:16:54.401
01:23:05.731 : :01:23:05.731
01:31:37.742 : :01:31:37.742
01:37:29.719 : :01:37:29.719
01:45:39.083 : :01:45:39.083
01:52:29.785 : :01:52:29.785
01:57:39.970 : :01:57:39.970
02:03:50.923 : :02:03:50.923
02:10:30.990 : :02:10:30.990

Скриншоты

Релиз от: Cthulhu


Скачать Shutter_Island_2010_BDRip_1080p_HEVC_10Bit.mkv.torrent

просмотры: 0

Post Comment