Зарубежные фильмы Комедия

Горячие головы / Hot Shots! (1991) BDRip-HEVC 1080p | P, P2, A

Информация о фильме
Название: Горячие головы
Оригинальное название: Hot Shots!
Год выхода: 1991
Жанр: Комедия, пародия, боевик
Режиссер: Джим Абрахамс
В ролях: Чарли Шин, Кэри Элвис, Валерия Голино, Ллойд Бриджес, Кевин Данн, Джон Крайер, Уильям О’Лири, Кристи Суонсон, Билл Ирвин, Хэйди Свидберг, Брюс А. Янг, Райан Стайлз, Рино Тандер, Марк Арнотт, Райан Кутрона, Дон Лейк, Келли Коннелл

О фильме:
Анекдотичные ситуации на военной базе, где герои, сами того не замечая, пародируют самые известные фильмы, заставят вас безудержно хохотать на протяжении всего фильма. Их горячие головы производят такое количество несуразных идей, что находиться рядом с ними просто опасно для здоровья.

Страна: США
Продолжительность: 01:24:47
Перевод: Профессиональный многоголосый, профессиональный двухголосый, авторский

Файл
Кодек: HEVC x265 10bit
Качество: BDRip-HEVC 1080p
Видео: 1918×1040, 23.976 кадр/сек, 6768 Кбит/сек, (Main [email protected]@High) 10bit
Звук:
Аудио1: Русская, AC3 384 Кбит/сек, 2 канала(ов),16bit 48,0 КГц (Многоголосый закадровый) ОРТ
Аудио2: Русская, AC3 384 Кбит/сек, 2 канала(ов),16bit 48,0 КГц (Двухголосый закадровый) Премьер Видео
Аудио3: Русская, AC3 384 Кбит/сек, 2 канала(ов),16bit 48,0 КГц (Одноголосый закадровый) А. Михалёв
Аудио4: Русская, AC3 384 Кбит/сек, 2 канала(ов),16bit 48,0 КГц (Одноголосый закадровый) Ю. Живов
Аудио5: English, AC3 640 Кбит/сек, 6 канала(ов),16bit 48,0 КГц
Субтитры: Русские, English
Навигация по главам: Есть

Mediainfo
General
Unique ID : 187648347630434694098470898742930271814 (0x8D2BC1D5FFE27310B9291E5BA5916E46)
Complete name : F:HEVCHot Shots! (1991) BDRip 1080p [HEVC] 10Bit.mkv
Format : Matroska
Format version : Version 4 / Version 2
File size : 5.30 GiB
Duration : 1 h 24 min
Overall bit rate : 8 946 kb/s
Movie name : rip_by_Cthulhu
Encoded date : UTC 2017-12-28 06:43:17
Writing application : mkvmerge v18.0.0 ('Apricity') 64-bit
Writing library : libebml v1.3.5 + libmatroska v1.4.8
Cover : Yes
Attachments : cover1.jpg

Video
ID : 1
Format : HEVC
Format/Info : High Efficiency Video Coding
Format profile : Main [email protected]@High
Codec ID : V_MPEGH/ISO/HEVC
Duration : 1 h 24 min
Bit rate : 6 768 kb/s
Width : 1 918 pixels
Height : 1 040 pixels
Display aspect ratio : 1.85:1
Frame rate mode : Constant
Frame rate : 23.976 (24000/1001) FPS
Color space : YUV
Chroma subsampling : 4:2:0
Bit depth : 10 bits
Bits/(Pixel*Frame) : 0.142
Stream size : 4.01 GiB (76%)
Writing library : x265 2.6+8-fc0570b8d8f9:[Windows][GCC 7.1.0][64 bit] 10bit
Encoding settings : cpuid=1050111 / frame-threads=5 / numa-pools=4 / wpp / no-pmode / no-pme / no-psnr / no-ssim / log-level=3 / input-csp=1 / input-res=1918×1040 / interlace=0 / total-frames=0 / level-idc=41 / high-tier=1 / uhd-bd=0 / ref=4 / no-allow-non-conformance / no-repeat-headers / annexb / no-aud / no-hrd / info / hash=0 / no-temporal-layers / open-gop / min-keyint=24 / keyint=240 / gop-lookahead=0 / bframes=10 / b-adapt=2 / b-pyramid / bframe-bias=0 / rc-lookahead=40 / lookahead-slices=6 / scenecut=40 / no-intra-refresh / ctu=64 / min-cu-size=8 / no-rect / no-amp / max-tu-size=32 / tu-inter-depth=2 / tu-intra-depth=2 / limit-tu=0 / rdoq-level=0 / dynamic-rd=0.00 / no-ssim-rd / signhide / no-tskip / nr-intra=0 / nr-inter=0 / no-constrained-intra / no-strong-intra-smoothing / max-merge=3 / limit-refs=3 / no-limit-modes / me=2 / subme=6 / merange=57 / temporal-mvp / weightp / weightb / no-analyze-src-pics / deblock=-3:-3 / no-sao / no-sao-non-deblock / rd=3 / no-early-skip / rskip / no-fast-intra / no-tskip-fast / no-cu-lossless / no-b-intra / no-splitrd-skip / rdpenalty=0 / psy-rd=1.00 / psy-rdoq=0.00 / no-rd-refine / analysis-reuse-mode=0 / no-lossless / cbqpoffs=0 / crqpoffs=0 / rc=crf / crf=20.0 / qcomp=0.60 / qpstep=4 / stats-write=0 / stats-read=0 / vbv-maxrate=50000 / vbv-bufsize=50000 / vbv-init=0.9 / crf-max=30.0 / crf-min=0.0 / ipratio=1.40 / pbratio=1.30 / aq-mode=1 / aq-strength=1.00 / cutree / zone-count=0 / no-strict-cbr / qg-size=32 / no-rc-grain / qpmax=69 / qpmin=0 / no-const-vbv / sar=1 / overscan=0 / videoformat=5 / range=0 / colorprim=2 / transfer=2 / colormatrix=2 / chromaloc=0 / display-window=0 / max-cll=0,0 / min-luma=0 / max-luma=1023 / log2-max-poc-lsb=8 / vui-timing-info / vui-hrd-info / slices=1 / no-opt-qp-pps / no-opt-ref-list-length-pps / no-multi-pass-opt-rps / scenecut-bias=0.05 / no-opt-cu-delta-qp / no-aq-motion / no-hdr / no-hdr-opt / no-dhdr10-opt / analysis-reuse-level=5 / scale-factor=0 / refine-intra=0 / refine-inter=0 / refine-mv=0 / no-limit-sao / ctu-info=0 / no-lowpass-dct / refine-mv-type=0 / copy-pic=1
Language : English
Default : Yes
Forced : No
Color range : Full

Audio #1
ID : 2
Format : AC-3
Format/Info : Audio Coding 3
Format settings, Endianness : Big
Codec ID : A_AC3
Duration : 1 h 24 min
Bit rate mode : Constant
Bit rate : 384 kb/s
Channel(s) : 2 channels
Channel positions : Front: L R
Sampling rate : 48.0 kHz
Frame rate : 31.250 FPS (1536 SPF)
Bit depth : 16 bits
Compression mode : Lossy
Stream size : 233 MiB (4%)
Title : AC3 (Многоголосый) ОРТ
Language : Russian
Service kind : Complete Main
Default : Yes
Forced : No

Audio #2
ID : 3
Format : AC-3
Format/Info : Audio Coding 3
Format settings, Endianness : Big
Codec ID : A_AC3
Duration : 1 h 24 min
Bit rate mode : Constant
Bit rate : 384 kb/s
Channel(s) : 2 channels
Channel positions : Front: L R
Sampling rate : 48.0 kHz
Frame rate : 31.250 FPS (1536 SPF)
Bit depth : 16 bits
Compression mode : Lossy
Stream size : 233 MiB (4%)
Title : AC3 (Двухголосый) Премьер Видео
Language : Russian
Service kind : Complete Main
Default : No
Forced : No

Audio #3
ID : 4
Format : AC-3
Format/Info : Audio Coding 3
Format settings, Endianness : Big
Codec ID : A_AC3
Duration : 1 h 24 min
Bit rate mode : Constant
Bit rate : 384 kb/s
Channel(s) : 2 channels
Channel positions : Front: L R
Sampling rate : 48.0 kHz
Frame rate : 31.250 FPS (1536 SPF)
Bit depth : 16 bits
Compression mode : Lossy
Stream size : 233 MiB (4%)
Title : AC3 (Одноголосый) А. Михалёв
Language : Russian
Service kind : Complete Main
Default : No
Forced : No

Audio #4
ID : 5
Format : AC-3
Format/Info : Audio Coding 3
Format settings, Endianness : Big
Codec ID : A_AC3
Duration : 1 h 24 min
Bit rate mode : Constant
Bit rate : 384 kb/s
Channel(s) : 2 channels
Channel positions : Front: L R
Sampling rate : 48.0 kHz
Frame rate : 31.250 FPS (1536 SPF)
Bit depth : 16 bits
Compression mode : Lossy
Stream size : 233 MiB (4%)
Title : AC3 (Одноголосый) Ю. Живов
Language : Russian
Service kind : Complete Main
Default : No
Forced : No

Audio #5
ID : 6
Format : AC-3
Format/Info : Audio Coding 3
Format settings, Endianness : Big
Codec ID : A_AC3
Duration : 1 h 24 min
Bit rate mode : Constant
Bit rate : 640 kb/s
Channel(s) : 6 channels
Channel positions : Front: L C R, Side: L R, LFE
Sampling rate : 48.0 kHz
Frame rate : 31.250 FPS (1536 SPF)
Bit depth : 16 bits
Compression mode : Lossy
Stream size : 388 MiB (7%)
Title : AC3 (Оригинал)
Language : English
Service kind : Complete Main
Default : No
Forced : No

Text #1
ID : 7
Format : UTF-8
Codec ID : S_TEXT/UTF8
Codec ID/Info : UTF-8 Plain Text
Duration : 1 h 19 min
Bit rate : 68 b/s
Count of elements : 881
Stream size : 39.8 KiB (0%)
Title : Русские
Language : Russian
Default : No
Forced : No

Text #2
ID : 8
Format : UTF-8
Codec ID : S_TEXT/UTF8
Codec ID/Info : UTF-8 Plain Text
Duration : 1 h 19 min
Bit rate : 63 b/s
Count of elements : 1061
Stream size : 37.0 KiB (0%)
Title : Английские
Language : English
Default : No
Forced : No

Menu
00:00:00.000 : :Chapter 01
00:02:22.267 : :Chapter 03
00:04:50.331 : :Chapter 05
00:08:06.944 : :Chapter 07
00:10:09.650 : :Chapter 09
00:11:13.214 : :Chapter 11
00:18:33.028 : :Chapter 13
00:21:34.584 : :Chapter 15
00:26:19.744 : :Chapter 17
00:29:02.449 : :Chapter 19
00:35:13.569 : :Chapter 21
00:37:50.518 : :Chapter 23
00:46:03.635 : :Chapter 25
00:48:37.080 : :Chapter 27
00:53:36.338 : :Chapter 29
00:55:57.729 : :Chapter 31
00:58:52.111 : :Chapter 33
01:04:12.473 : :Chapter 35
01:06:26.941 : :Chapter 37
01:08:35.277 : :Chapter 39
01:11:46.510 : :Chapter 41
01:16:46.768 : :Chapter 43
01:18:45.137 : :Chapter 45
01:19:54.956 : :Chapter 47
01:24:46.873 : :Chapter 48

Скриншоты

Релиз от: Cthulhu


Скачать Hot_Shots_1991_BDRip_1080p_HEVC_10Bit.mkv.torrent

просмотры: 8

Post Comment