Аниме

Детектив Конан OVA-4: Конан, Кид и Мать-Кристал! / Detective Conan: Conan and Kid and Crystal Mother (2004) DVDRip-AVC | L


Meitantei Conan: Agasa-sensei no Chousenjou! Agasa vs Conan & Shounen Tanteidan

Страна: Япония
Год выпуска: 2004
Жанр: приключения, детектив
Тип: OVA
Продолжительность: (1 эп.), 25 мин.
Режиссер: Ямамото Ясуйтиро
Студия: TMS

Описание:
Кайто Куроба снова посылает записку о том, что собирается совершить кражу в поезде. В этот раз его цель самый большой топаз в Европе "Мать кристаллов", который является драгоценностью империи Инграм. После того как Сэлизабет в первый раз помешала Кайто уйти с топазом она прячет его в неизвестном месте. Так же маленький принц Филипп, желая снова услышать похвалу от матери, старается поймать преступника. Сможет ли Кайто обхитрить королеву и заполучить желаемую драгоценность? Ведь на этом же поезде по случайному совпадению едут не только великий детектив Эдогава Конан и инспектор Гинзо Накаморе, но и опасные преступники Змея и Роза.

Доп. информация:
Релиз GSGroup

Качество: DVDRip
Тип релиза: Без хардсаба
Формат видео: MKV
Автор рипа: APTX4869
Видео: AVC 704×528 4:3 23.976 fps 1315 Kbps 8 bits
Аудио 1: AC-3 192 Kbps 2 channels 48.0 KHz Язык Русский (в составе контейнера) ; Озвучка: Любительская одноголосая: Persona99
Аудио 2: AC-3 192 Kbps 2 channels 48.0 KHz Язык Японский
Субтитры: ass встроенные Язык субтитров русский ; Перевод: Tachikoma h, Teisson h. Оформление, редактура: Smarter Лирика: AlenFuns

Подробные тех. данные

General
Unique ID : 233303705920978581197566776342422688917 (0xAF84A8CA4ECE7E11BE8B0999C0471495)
Complete name : W:Detective Conan OVADetective Conan OVA-04 ~Conan to Kid to Crystal Mother~[DVDRIP_X264_AC3].rus.jpn.mkv
Format : Matroska
Format version : Version 2
File size : 311 MiB
Duration : 25mn 4s
Overall bit rate : 1 736 Kbps
Encoded date : UTC 2017-11-04 01:11:47
Writing application : mkvmerge v4.0.0 ('The Stars were mine') built on Jun 6 2010 16:18:42
Writing library : libebml v1.0.0 + libmatroska v1.0.0
Attachements : AFuturaRoundDemi.otf / ANTQUAB.TTF / ANTQUABI.TTF / ANTQUAI.TTF / ARIALN.TTF / ARIALNB.TTF / ARIALNBI.TTF / ARIALNI.TTF / ariblk.ttf / BENGUIAT.TTF / BenguiatGothicCTT.TTF / Betina Bold.Ttf / BetinaCTT.ttf / BKANT.TTF / BTS.TTF / calibri.ttf / calibrib.ttf / calibrii.ttf / calibriz.ttf / cambria.ttc / cambriab.ttf / cambriai.ttf / cambriaz.ttf / CGOTHIC.TTF / Domkrat Bold.ttf / MyriadPro-BoldCond.otf / MyriadPro-BoldCondIt.otf / MyriadPro-Cond.otf / MyriadPro-CondIt.otf / Studio.ttf / trebuc.ttf / trebucbd.ttf / trebucbi.ttf / trebucit.ttf

Video
ID : 1
Format : AVC
Format/Info : Advanced Video Codec
Format profile : [email protected]
Format settings, CABAC : Yes
Format settings, ReFrames : 4 frames
Codec ID : V_MPEG4/ISO/AVC
Duration : 25mn 4s
Bit rate : 1 315 Kbps
Width : 704 pixels
Height : 528 pixels
Display aspect ratio : 4:3
Frame rate mode : Constant
Frame rate : 23.976 fps
Color space : YUV
Chroma subsampling : 4:2:0
Bit depth : 8 bits
Scan type : Progressive
Bits/(Pixel*Frame) : 0.148
Stream size : 236 MiB (76%)
Title : Video
Writing library : x264 core 45 svn-465
Encoding settings : cabac=1 / ref=1 / deblock=1:0:0 / analyse=0x3:0x133 / me=hex / subme=5 / brdo=0 / mixed_ref=0 / me_range=16 / chroma_me=1 / trellis=1 / 8x8dct=1 / cqm=0 / chroma_qp_offset=0 / slices=1 / nr=0 / bframes=2 / b_pyramid=1 / b_adapt=1 / b_bias=0 / direct=2 / wpredb=1 / bime=1 / keyint=250 / keyint_min=25 / scenecut=40 / rc=2pass / bitrate=1315 / ratetol=1.0 / rceq='blurCplx^(1-qComp)' / qcomp=0.60 / qpmin=15 / qpmax=25 / qpstep=4 / cplxblur=20.0 / qblur=0.5 / ip_ratio=1.40 / pb_ratio=1.30
Language : Japanese
Default : No
Forced : No

Audio #1
ID : 2
Format : AC-3
Format/Info : Audio Coding 3
Mode extension : CM (complete main)
Format settings, Endianness : Big
Codec ID : A_AC3
Duration : 25mn 4s
Bit rate mode : Constant
Bit rate : 192 Kbps
Channel(s) : 2 channels
Channel positions : Front: L R
Sampling rate : 48.0 KHz
Compression mode : Lossy
Stream size : 34.4 MiB (11%)
Title : Persona99
Language : Russian
Default : Yes
Forced : No

Audio #2
ID : 3
Format : AC-3
Format/Info : Audio Coding 3
Mode extension : CM (complete main)
Format settings, Endianness : Big
Codec ID : A_AC3
Duration : 25mn 4s
Bit rate mode : Constant
Bit rate : 192 Kbps
Channel(s) : 2 channels
Channel positions : Front: L R
Sampling rate : 48.0 KHz
Compression mode : Lossy
Delay relative to video : 6ms
Stream size : 34.4 MiB (11%)
Title : Audio
Language : Japanese
Default : No
Forced : No

Text
ID : 4
Format : ASS
Codec ID : S_TEXT/ASS
Codec ID/Info : Advanced Sub Station Alpha
Compression mode : Lossless
Title : ass
Language : Russian
Default : No
Forced : No

Menu
00:00:00.000 : en:OVA's Advice
00:00:14.972 : en:CONAN logo
00:00:21.979 : en:1st Part
00:00:39.372 : en:2nd Part
00:14:37.687 : en:3rd Part
00:23:14.517 : en:Ending Theme
00:24:38.768 : en:4th Part

Скриншоты


Скачать Detective_Conan_OVA-04.torrent

просмотры: 1

Post Comment