Зарубежные фильмы Исторический

Человек-паук: Возвращение домой / Spider-Man: Homecoming (2017) UHD BDRemux 2160p | 4K | HDR | Лицензия

Информация о фильме
Название: Человек-паук: Возвращение домой
Оригинальное название: Spider-Man: Homecoming
Год выхода: 2017
Жанр: Фантастика, боевик, приключения
Режиссер: Джон Уоттс
В ролях: Том Холланд (II), Роберт Дауни мл., Майкл Китон, Мариса Томей, Джон Фавро, Джейкоб Баталон, Зендея, Лора Хэрриер, Тони Револори, Дональд Гловер

О фильме:
После исторической встречи с командой Мстителей Питер Паркер возвращается домой, стараясь зажить обычной жизнью под опекой своей тёти Мэй. Но теперь за Питером приглядывает ещё кое-что… Тони Старк видел Человека-Паука в деле и должен стать его наставником. Когда новый злодей Стервятник угрожает уничтожить всё, что дорого Питеру, приходит время доказать всем, что такое настоящий супергерой.

Страна: США
Студия: Columbia Pictures, Marvel Studios Inc., Pascal Pictures
Продолжительность: 02:13:28
Перевод: Дублированный | Лицензия

Релиз от: BLUEBIRD

Файл
Качество: BDRemux 2160p
Видео: MPEG-H HEVC HDR Video, 3840×2160, 46.3 Mbit/s, 23.976 fps
Аудио: AAC, 6 ch, 448 kbps — Русский, Дубляж
Аудио: AAC, 6 ch, 448 kbps — Украинский, Дубляж
Аудио: AAC, 6 ch, 448 kbps — Казахский, Дубляж
Аудио: Dolby Atmos/TrueHD 7.1, 5585 kbps — Английский
Субтитры: [/b]Русские (forced, full), Украинские, Английские

MI
Video
ID : 1
Format : HEVC
Format/Info : High Efficiency Video Coding
Format profile : Main [email protected]@High
Codec ID : V_MPEGH/ISO/HEVC
Duration : 2 h 13 min
Bit rate : 46.3 Mb/s
Width : 3 840 pixels
Height : 2 160 pixels
Display aspect ratio : 16:9
Frame rate mode : Constant
Frame rate : 23.976 (24000/1001) FPS
Color space : YUV
Chroma subsampling : 4:2:0 (Type 2)
Bit depth : 10 bits
Bits/(Pixel*Frame) : 0.233
Stream size : 43.2 GiB (88%)
Title : SPIDERMAN_HC_BD_UHD_HDR_REMUX_BLUEBIRD
Default : Yes
Forced : No
Color range : Limited
Color primaries : BT.2020
Transfer characteristics : PQ
Matrix coefficients : BT.2020 non-constant
Mastering display color primaries : R: x=0.680000 y=0.320000, G: x=0.265000 y=0.690000, B: x=0.150000 y=0.060000, White point: x=0.312700 y=0.329000
Mastering display luminance : min: 0.0050 cd/m2, max: 4000.0000 cd/m2
Maximum Content Light Level : 4332 cd/m2
Maximum Frame-Average Light Level : 992 cd/m2

Audio #1
ID : 2
Format : AC-3
Format/Info : Audio Coding 3
Codec ID : A_AC3
Duration : 2 h 13 min
Bit rate mode : Constant
Bit rate : 448 kb/s
Channel(s) : 6 channels
Channel positions : Front: L C R, Side: L R, LFE
Sampling rate : 48.0 kHz
Frame rate : 31.250 FPS (1536 SPF)
Bit depth : 16 bits
Compression mode : Lossy
Stream size : 428 MiB (1%)
Title : [DUB] DD 5.1 @ 448 kbps
Language : Russian
Service kind : Complete Main
Default : Yes
Forced : No

Audio #2
ID : 3
Format : AC-3
Format/Info : Audio Coding 3
Codec ID : A_AC3
Duration : 2 h 13 min
Bit rate mode : Constant
Bit rate : 448 kb/s
Channel(s) : 6 channels
Channel positions : Front: L C R, Side: L R, LFE
Sampling rate : 48.0 kHz
Frame rate : 31.250 FPS (1536 SPF)
Bit depth : 16 bits
Compression mode : Lossy
Stream size : 428 MiB (1%)
Title : [DUB] DD 5.1 @ 448 kbps
Language : Ukrainian
Service kind : Complete Main
Default : No
Forced : No

Audio #3
ID : 4
Format : AC-3
Format/Info : Audio Coding 3
Codec ID : A_AC3
Duration : 2 h 13 min
Bit rate mode : Constant
Bit rate : 448 kb/s
Channel(s) : 6 channels
Channel positions : Front: L C R, Side: L R, LFE
Sampling rate : 48.0 kHz
Frame rate : 31.250 FPS (1536 SPF)
Bit depth : 16 bits
Compression mode : Lossy
Stream size : 428 MiB (1%)
Title : [DUB] DD 5.1 @ 448 kbps
Language : Kazakh
Service kind : Complete Main
Default : No
Forced : No

Audio #4
ID : 5
Format : TrueHD
Format profile : TrueHD+Atmos / TrueHD
Codec ID : A_TRUEHD
Duration : 2 h 13 min
Bit rate mode : Variable
Bit rate : 4 945 kb/s
Maximum bit rate : 8 175 kb/s
Channel(s) : Object Based / 8 channels
Channel positions : Object Based / Front: L C R, Side: L R, Back: L R, LFE
Sampling rate : / 48.0 kHz
Frame rate : 1 200.000 FPS (40 SPF)
Compression mode : Lossless
Stream size : 4.61 GiB (9%)
Title : [ORIGINAL] ATMOS 7.1 @ 5585 kbps
Language : English
Default : No
Forced : No

Text #1
ID : 6
Format : PGS
Codec ID : S_HDMV/PGS
Codec ID/Info : Picture based subtitle format used on BDs/HD-DVDs
Duration : 2 h 12 min
Bit rate : 38.0 kb/s
Count of elements : 3649
Stream size : 36.1 MiB (0%)
Title : Full-length
Language : Russian
Default : No
Forced : No

Text #2
ID : 7
Format : PGS
Codec ID : S_HDMV/PGS
Codec ID/Info : Picture based subtitle format used on BDs/HD-DVDs
Duration : 2 h 12 min
Bit rate : 34.7 kb/s
Count of elements : 3643
Stream size : 33.0 MiB (0%)
Title : Full-length
Language : Ukrainian
Default : No
Forced : No

Text #3
ID : 8
Format : PGS
Codec ID : S_HDMV/PGS
Codec ID/Info : Picture based subtitle format used on BDs/HD-DVDs
Duration : 2 h 12 min
Bit rate : 45.6 kb/s
Count of elements : 4421
Stream size : 43.3 MiB (0%)
Title : Full-length
Language : English
Default : No
Forced : No

Menu
00:00:00.000 : en:Chapter 1
00:05:34.083 : en:Chapter 2
00:14:24.280 : en:Chapter 3
00:20:50.999 : en:Chapter 4
00:26:19.244 : en:Chapter 5
00:36:27.977 : en:Chapter 6
00:46:03.927 : en:Chapter 7
00:54:40.193 : en:Chapter 8
01:05:10.281 : en:Chapter 9
01:12:03.277 : en:Chapter 10
01:20:20.190 : en:Chapter 11
01:29:41.542 : en:Chapter 12
01:36:56.894 : en:Chapter 13
01:44:44.152 : en:Chapter 14
01:50:31.249 : en:Chapter 15
01:57:53.566 : en:Chapter 16


Скачать CHelovek-pauk-Vozvrashenie-domoi—Spider-Man-Ho.torrent

просмотры: 2

Post Comment