Зарубежные фильмы Исторический

Леший / Man-Thing (2005) HDTVRip-AVC от ExKinoRay | D

Информация о фильме
Название: Леший
Оригинальное название: Man-Thing
Год выхода: 2005
Жанр: Ужасы, фантастика, боевик
Режиссер: Бретт Леонард
В ролях: Мэттью Ле Невес, Рэйчел Тэйлор, Джек Томпсон, Равири Паратене, Патрик Томпсон, Стив Бастони, Алекс О'Лаклэн, Имоджен Бэйли, Роберт Маммон, Уильям Заппа

О фильме :
Нефтяной бизнесмен по имени Шист пытается овладеть болотами. Его ничуть не смущает, что об этих местах ходят самые страшные слухи. Индейцы, исторические хозяева этих мест, утверждают, что там пробудилась много веков дремавшая древняя сила. Слова индейцев подтверждаются и серией загадочных убийств, произошедших на болотах за последнее время. Шериф Кайл Уильямс вынужден заниматься расследованием этих дел, от которых явственно несет чертовщиной. Ему придется отправиться на таинственные болота, чтобы узнать – что за древнее зло там поселилось.

Страна: США, Австралия
Продолжительность: 01:33:10
Перевод: Профессиональный (полное дублирование)

Файл
Формат: MKV
Качество: HDTVRip-AVC
Видео: MPEG-4 AVC, 752×424, ~ 1042 Кбит/с
Аудио: AAC-LC, 2 ch, ~ 76 Кбит/с
Субтитры: Русские, английские

MI
Общее
Уникальный идентификатор : 254502678583408379995240445544957076357 (0xBF776ED689220FB7A499B3759F89E385)
Полное имя : D:MOVIESMan-Thing.2005.ExKinoRay.mkv
Формат : Matroska
Версия формата : Version 4 / Version 2
Размер файла : 746 Мбайт
Продолжительность : 1 ч. 33 м.
Общий поток : 1120 Кбит/сек
Дата кодирования : UTC 2017-12-24 18:04:53
Программа кодирования : mkvmerge v15.0.0 ('Duel with the Devil') 64-bit
Библиотека кодирования : libebml v1.3.5 + libmatroska v1.4.5

Видео
Идентификатор : 1
Формат : AVC
Формат/Информация : Advanced Video Codec
Профиль формата : [email protected]
Параметр CABAC формата : Да
Параметр RefFrames формата : 10 кадров
Идентификатор кодека : V_MPEG4/ISO/AVC
Продолжительность : 1 ч. 33 м.
Битрейт : 1042 Кбит/сек
Ширина : 752 пикселя
Высота : 424 пикселя
Соотношение сторон : 16:9
Режим частоты кадров : Постоянный
Частота кадров : 25,000 кадров/сек
Цветовое пространство : YUV
Субдискретизация насыщенности : 4:2:0
Битовая глубина : 8 бит
Тип развёртки : Прогрессивная
Бит/(Пиксели*Кадры) : 0.131
Размер потока : 694 Мбайт (93%)
Библиотека кодирования : x264 core 152 r2851 ba24899
Настройки программы : cabac=1 / ref=10 / deblock=1:-3:-3 / analyse=0x3:0x133 / me=umh / subme=11 / psy=1 / psy_rd=1.00:0.15 / mixed_ref=1 / me_range=32 / chroma_me=1 / trellis=2 / 8x8dct=1 / cqm=0 / deadzone=21,11 / fast_pskip=0 / chroma_qp_offset=-3 / threads=6 / lookahead_threads=1 / sliced_threads=0 / nr=0 / decimate=0 / interlaced=0 / bluray_compat=0 / constrained_intra=0 / bframes=10 / b_pyramid=2 / b_adapt=2 / b_bias=0 / direct=3 / weightb=1 / open_gop=0 / weightp=2 / keyint=250 / keyint_min=24 / scenecut=40 / intra_refresh=0 / rc_lookahead=40 / rc=2pass / mbtree=0 / bitrate=1042 / ratetol=1.0 / qcomp=0.60 / qpmin=0 / qpmax=69 / qpstep=4 / cplxblur=20.0 / qblur=0.5 / vbv_maxrate=50000 / vbv_bufsize=62500 / nal_hrd=none / filler=0 / ip_ratio=1.40 / pb_ratio=1.30 / aq=1:1.00
Default : Да
Forced : Нет

Аудио
Идентификатор : 2
Формат : AAC
Формат/Информация : Advanced Audio Codec
Профиль формата : LC
Идентификатор кодека : A_AAC
Продолжительность : 1 ч. 33 м.
Битрейт : 76,0 Кбит/сек
Каналы : 2 канала
Расположение каналов : Front: L R
Частота : 48,0 КГц
Частота кадров : 46,875 кадров/сек (1024 SPF)
Метод сжатия : С потерями
Задержка видео : 9 мс.
Размер потока : 50,6 Мбайт (7%)
Default : Да
Forced : Нет

Текст #1
Идентификатор : 3
Формат : UTF-8
Идентификатор кодека : S_TEXT/UTF8
Идентификатор кодека/Информация : UTF-8 Plain Text
Продолжительность : 1 ч. 28 м.
Битрейт : 65 бит/сек
ElementCount : 907
Размер потока : 42,6 Кбайт (0%)
Язык : Russian
Default : Нет
Forced : Нет

Текст #2
Идентификатор : 4
Формат : UTF-8
Идентификатор кодека : S_TEXT/UTF8
Идентификатор кодека/Информация : UTF-8 Plain Text
Продолжительность : 1 ч. 23 м.
Битрейт : 39 бит/сек
ElementCount : 857
Размер потока : 24,2 Кбайт (0%)
Язык : English
Default : Нет
Forced : Нет

Скриншоты

Релиз от:


Скачать Man-Thing.2005.ExKinoRay.mkv.torrent

просмотры: 8

Post Comment