Аниме

Мастера меча онлайн: Порядковый ранг / Gekijouban Sword Art Online: Ordinal Scale (2017) BDRip 1080p | AniDub

Информация о фильме
Название: Мастера меча онлайн: Порядковый ранг
Оригинальное название: Gekijouban Sword Art Online: Ordinal Scale
Год выхода: 2017
Жанр: приключения, фантастика
Режиссер: Ито Томохико
Художник: Нагасима Такаюки, Такэда Юсукэ, Хори Сотаро, Сиодзава Ёсинори
В ролях: Мацуока Ёсицугу, Томацу Харука, Ито Канаэ, Такэтацу Аяна, Хидака Рина, Такагаки Аяхи, Савасиро Миюки, Хирата Хироаки, Ясумото Хироки, Ямадэра Коити, Канда Саяка, Иноэ Ёсио, Кага Такэси
О фильме:
Полнометражный фильм вселенной САО по оригинальному сценарию Кавахары Рэки. Действие будет происходить между арками "Розарий матери" и "Алисизация" и сконцентрируется на отношениях Кирито и Асуны.
Фильм будет рассказывать о новой игре, для которой требуется устройство расширенной реальности под названием "Augma". Augma куда компактнее АмуСферы. Ordinal Scale — это ARMMORPG, эксклюзивная для Augma. Игра наделала шуму благодаря применению в ней новейших технологий, включающих реальный мир в игру в качестве игрового поля, а также возможности повышать ранг победами над монстрами и применять предметы в различных областях реального мира. Ordinal Scale (OS) — это функция в игре, и все игроки получают ранг, основанный на их порядковых номерах. Таким образом, топовые игроки обладают несокрушимой силой. В соло-PvP порядковый ранг — это важный фактор, определяющий во многом победу и поражение.


World Art | MAL

Страна: Япония
Студия: A-1 Pictures Inc.
Продолжительность: 02:00:12
Язык: Русский, Японский
Перевод: Любительский (двухголосый, закадровый)

Файл
Качество: BDRip
Формат: MKV
Кодек: H.264
Аудио кодек: AAC
Видео: 1920×1080, 23.976 fps, 8000 kbps
Аудио RUS: 48.0 kHz, AAC, 2 ch, 192 kbps — AniDub
Аудио JAP: 48.0 kHz, AAC, 2 ch, 208 kbps
Субтитры: русские (встроенные полный перевод, ASS) — 2nd Division & DanielB & Tanegashi

Озвучка
Релиз от:
Озвучивание: JAM, Nika Lenina
Перевод: 2nd Division
Тайминг и работа со звуком: Angrod

Скриншоты

MediaInfo
General
Format : Matroska
Format version : Version 4 / Version 2
File size : 7.09 GiB
Duration : 2 h 0 min
Overall bit rate : 8 439 kb/s
Encoded date : UTC 2017-10-28 05:28:37
Writing application : mkvmerge v8.3.0 ('Over the Horizon') 64bit
Writing library : libebml v1.3.1 + libmatroska v1.4.2

Video
ID : 1
Format : AVC
Format/Info : Advanced Video Codec
Format profile : [email protected]
Format settings, CABAC : Yes
Format settings, ReFrames : 4 frames
Codec ID : V_MPEG4/ISO/AVC
Duration : 2 h 0 min
Bit rate : 8 036 kb/s
Width : 1 920 pixels
Height : 1 080 pixels
Display aspect ratio : 16:9
Frame rate mode : Constant
Frame rate : 23.976 (24000/1001) FPS
Color space : YUV
Chroma subsampling : 4:2:0
Bit depth : 8 bits
Scan type : Progressive
Bits/(Pixel*Frame) : 0.162
Stream size : 6.75 GiB (95%)
Writing library : x264 core 152 r2851+58 429492e t_mod_Custom [[email protected] X86]
Encoding settings : cabac=1 / ref=3 / deblock=1:0:0 / analyse=0x1:0x131 / me=umh / subme=9 / psy=1 / fade_compensate=0.00 / psy_rd=1.00:0.00 / mixed_ref=1 / me_range=32 / chroma_me=1 / trellis=1 / 8x8dct=0 / cqm=0 / deadzone=21,11 / fast_pskip=1 / chroma_qp_offset=-2 / threads=18 / lookahead_threads=1 / sliced_threads=0 / nr=0 / decimate=1 / interlaced=0 / bluray_compat=0 / constrained_intra=0 / fgo=0 / bframes=3 / b_pyramid=2 / b_adapt=1 / b_bias=0 / direct=1 / weightb=1 / open_gop=0 / weightp=2 / keyint=240 / keyint_min=1 / scenecut=40 / intra_refresh=0 / rc_lookahead=40 / rc=crf / mbtree=1 / crf=17.0000 / qcomp=0.60 / qpmin=0:0:0 / qpmax=69:69:69 / qpstep=4 / ip_ratio=1.40 / aq=1:1.00 / aq-sensitivity=10.00 / aq-factor=1.00:1.00:1.00 / aq2=0 / aq3=0
Default : Yes
Forced : No

Audio #1
ID : 2
Format : AAC
Format/Info : Advanced Audio Codec
Format profile : LC
Codec ID : A_AAC
Duration : 2 h 0 min
Bit rate : 192 kb/s
Channel(s) : 2 channels
Channel positions : Front: L R
Sampling rate : 48.0 kHz
Frame rate : 46.875 FPS (1024 spf)
Compression mode : Lossy
Stream size : 165 MiB (2%)
Title : AniDub
Language : Russian
Default : Yes
Forced : No

Audio #2
ID : 3
Format : AAC
Format/Info : Advanced Audio Codec
Format profile : LC
Codec ID : A_AAC
Duration : 2 h 0 min
Bit rate : 208 kb/s
Channel(s) : 2 channels
Channel positions : Front: L R
Sampling rate : 48.0 kHz
Frame rate : 46.875 FPS (1024 spf)
Compression mode : Lossy
Stream size : 179 MiB (2%)
Title : Original
Language : Japanese
Default : No
Forced : No

Text
ID : 4
Format : ASS
Codec ID : S_TEXT/ASS
Codec ID/Info : Advanced Sub Station Alpha
Duration : 1 h 59 min
Bit rate : 126 b/s
Count of elements : 1409
Compression mode : Lossless
Stream size : 110 KiB (0%)
Title : Полные субтитры
Language : Russian
Default : Yes
Forced : No


Скачать Gekijouban_Sword_Art_Online_-_Ordinal_Scale_BDR.torrent

просмотры: 11

Post Comment