Телевизор

Валерий Головко. Саундтрек длиною в жизнь / Larry Golovko (2012) DVB от AND03AND

Информация о фильме
Название: Валерий Головко. Саундтрек длиною в жизнь / Larry Golovko
Год выхода: 2012
Жанр: Биографии замечательных людей
Режиссер: Юрий Ярошик

О фильме:
Документальный фильм о белорусском композиторе.
В основе картины — неизвестные факты, о которых герой откровенно расскажет впервые.
Криминальное детство в Гомеле и ранняя смерть отца, поступление в самый престижный музыкальный вуз Ленинграда, появление в составе "Песняров", три клинические смерти, создание и крах большого бизнеса в начале 90-х, единственная настоящая любовьи гибель супруги в ДТП, работа с режиссерами Голливуда, появление песни "Мама" (в исполнении Натальи Подольской), эмиграция в США, возвращение в Беларусь и авторский концерт с Президентским оркестром в 2005 году, новая супруга, которая более чем на 30 лет младше, — все это об одном человеке, которого коллеги и друзья называют музыкальным гением.
Среди экспертов телефильма, который выйдет на "Беларусь 1", — друзья Батыр Шукенов (основатель группы "А-студио"), Наталья Подольская, Валерий Дайнеко, а также все те люди, с которыми рос и работал в разные годы известный композитор Валерий Головко.

Доп. информация: Запись потока *.ts с наземного цифрового телеканала "Беларусь 3".

Подобные раздачи:
Авторский концерт Валерия Головко — Три Ивана (2005)
http://rutor.is/torrent/601969/
Авторский концерт Валерия Головко — Победа / Исповедь / Одиночество (2015)
http://rutor.is/torrent/601894/

Благодарность: за помощь с недостающим материалом Bartimeyse и PavelDAS. Обоим большое спасибо!

Страна: Республика Беларусь
Студия: Белтелерадиокомпания
Продолжительность: 00:50:35
Перевод: не требует

Файл
Кодек: AVC (H264)
Качество: DVB от AND03AND
Видео: MPEG4 Video (H264) 720(785)x576 (49:36) 25fps, 2 255 kb/s
Звук: MPEG Audio 48000Hz stereo 256kbps

Семпл

MediaInfo

General
ID : 1 (0x1)
Complete name : D:Новая земля 201 Документальный фильмыЛичностиВалерий Головко. Саундтрек длиною в жизнь (2012)Валерий Головко. Саундтрек длиною в жизнь (2012).ts
Format : MPEG-TS
File size : 956 MiB
Duration : 50 min
Overall bit rate mode : Variable
Overall bit rate : 2 644 kb/s

Video
ID : 801 (0x321)
Menu ID : 1 (0x1)
Format : AVC
Format/Info : Advanced Video Codec
Format profile : [email protected]
Format settings, CABAC : Yes
Format settings, ReFrames : 4 frames
Format settings, GOP : M=4, N=24
Codec ID : 27
Duration : 50 min
Bit rate : 2 255 kb/s
Width : 720 pixels
Height : 576 pixels
Display aspect ratio : 4:3
Frame rate : 25.000 FPS
Standard : PAL
Color space : YUV
Chroma subsampling : 4:2:0
Bit depth : 8 bits
Scan type : MBAFF
Scan type, store method : Separated fields
Scan order : Top Field First
Bits/(Pixel*Frame) : 0.217
Stream size : 816 MiB (85%)
Color range : Limited
Color primaries : BT.601 PAL
Transfer characteristics : BT.470 System B, BT.470 System G
Matrix coefficients : BT.601

Audio
ID : 802 (0x322)
Menu ID : 1 (0x1)
Format : MPEG Audio
Format version : Version 1
Format profile : Layer 2
Codec ID : 3
Duration : 50 min
Bit rate mode : Constant
Bit rate : 256 kb/s
Channel(s) : 2 channels
Sampling rate : 48.0 kHz
Compression mode : Lossy
Stream size : 92.6 MiB (10%)
Language : English

Скриншоты


Скачать Valerij_Golovko._Saundtrek_dlinoju_v_zhizn_2012.torrent

просмотры: 3

Post Comment