Вестерн Зарубежные фильмы

Далеко-далеко / Far and Away (1992) BDRip 1080p от NNNB | P, P2, A

Название: Далеко-далеко (Далекая страна)
Оригинальное название: Far and Away
Год выпуска: 1992
Жанр: Драма, мелодрама, приключения, вестерн
Выпущено: США, Австралия, Imagine Films Entertainment, Universal Pictures
Режиссер: Рон Ховард
В ролях: Том Круз, Николь Кидман, Томас Гибсон, Роберт Проски, Барбара Бэбкок, Колм Мини, Мишель Джонсон, Джаред Харрис, Сирил Кьюсак, Эйлин Поллок, Дуглас Джиллисон, Уэйн Грейс, Ниал Тойбин, Бэрри МакГоверн, Гэри Ли Дэвис, Стив О’Доннелл, Пидар Ламб, Марк Малхолланд, П.Дж. Брэйди, Уэсли Мерфи, Джимми Кеог, Дж.Дж. Дэвлин, Джерри Уолш, Брендан Колдвелл, Дерри Пауэр, Ноэль О’Донован, Макдара О Фатарта, Эйлин Колган, Кейт Флинн, Джоан О’Хара, Фрэнки МакКафферти, Полл Муссулидес, Пэт Киневейн, Доннча Краули, Тим МакДоннел, Тодд Халлоуэлл, Кеннет МакКласки, Брендан Эллис, Клинт Ховард, Джеффри Эндрюс, Джуди

Перевод: Профессиональный многоголосый, профессиональный двухголосый, авторский

Сюжет фильма

Прекрасно поставленная, выдержанная и изумительно сыгранная картина об эмигрантах, направляющихся в Новый Свет в XIX столетии. Еще одна история из времен Дикого Запада — и редкая возможность увидеть вместе на экране семейный звездный дуэт — Тома Круза и Николь Кидман. Рыжеволосая кудрявая красавица и ее скромный, но не имеющий ни гроша за душой возлюбленный, ирландец, отправляются на заокеанский далекий Запад в поисках счастья. Им приходится преодолеть массу препятствий, но в конце концов удача улыбается герою Тома Круза и он окончательно покоряет сердце своей возлюбленной, влившись в славные ряды пионеров американского Запада.

Файл
Качество: BDRip 1080p (исходник Blu-ray Remux)
Видео: 1920×816, 8 540 Кбит/сек, 23.976 кадр/сек, AVC, x264, [email protected], 0.227 Бит/[Пиксели*Кадры], 2pass
Аудио 1: AC3 5.1 48 kHz 384 kbps — Профессиональный многоголосый, R5
Аудио 2: AC3 2.0 48 kHz 192 kbps — Профессиональный многоголосый, Первый канал
Аудио 3: AC3 2.0 48 kHz 192 kbps — Профессиональный двухголосый, Рен ТВ
Аудио 4: AC3 2.0 48 kHz 192 kbps — Профессиональный двухголосый, Премьер
Аудио 5: AC3 5.1 48 kHz 384 kbps — Профессиональный двухголосый, Визгунов & Woman
Аудио 6: AC3 5.1 48 kHz 640 kbps — Авторский, А.Гаврилов
Аудио 7: AC3 5.1 48 kHz 640 kbps — Авторский, Ю.Живов
Аудио 8: AC3 5.1 48 kHz 640 kbps — English
Чаптеры: есть
Субтитры: Russian
Продолжительность: 02:19:59

Автор рипа: Группа:

Скриншоты

MediaInfo

Format : Matroska
Format version : Version 2
File size : 11.5 GiB
Duration : 2h 19mn
Overall bit rate : 11.8 Mbps
Movie name : Far and Away.(1992).BDRip.1080p.[denis100]
Encoded date : UTC 2014-06-22 05:38:59
Writing application : mkvmerge v5.8.0 ('No Sleep / Pillow') built on Sep 2 2012 15:37:04
Writing library : libebml v1.2.3 + libmatroska v1.3.0

Video
ID : 1
Format : AVC
Format/Info : Advanced Video Codec
Format profile : [email protected]
Format settings, CABAC : Yes
Format settings, ReFrames : 5 frames
Codec ID : V_MPEG4/ISO/AVC
Duration : 2h 19mn
Bit rate : 8 540 Kbps
Width : 1 920 pixels
Height : 816 pixels
Display aspect ratio : 2.35:1
Frame rate mode : Constant
Frame rate : 23.976 fps
Color space : YUV
Chroma subsampling : 4:2:0
Bit depth : 8 bits
Scan type : Progressive
Bits/(Pixel*Frame) : 0.227
Stream size : 8.12 GiB (70%)
Title : Far and Away.(1992).BDRip.1080p.[denis100]
Writing library : x264 core 138 r2358 9e941d1
Encoding settings : cabac=1 / ref=5 / deblock=1:-3:-3 / analyse=0x3:0x133 / me=umh / subme=11 / psy=1 / psy_rd=1.00:0.15 / mixed_ref=1 / me_range=32 / chroma_me=1 / trellis=2 / 8x8dct=1 / cqm=0 / deadzone=21,11 / fast_pskip=0 / chroma_qp_offset=-3 / threads=6 / lookahead_threads=1 / sliced_threads=0 / nr=0 / decimate=1 / interlaced=0 / bluray_compat=0 / constrained_intra=0 / bframes=8 / b_pyramid=2 / b_adapt=2 / b_bias=0 / direct=3 / weightb=1 / open_gop=0 / weightp=2 / keyint=240 / keyint_min=23 / scenecut=40 / intra_refresh=0 / rc=2pass / mbtree=0 / bitrate=8540 / ratetol=1.0 / qcomp=0.60 / qpmin=0 / qpmax=69 / qpstep=4 / cplxblur=20.0 / qblur=0.5 / ip_ratio=1.40 / pb_ratio=1.30 / aq=1:0.90
Language : English
Default : Yes
Forced : No

Audio #1
ID : 2
Format : AC-3
Format/Info : Audio Coding 3
Mode extension : CM (complete main)
Format settings, Endianness : Big
Codec ID : A_AC3
Duration : 2h 19mn
Bit rate mode : Constant
Bit rate : 384 Kbps
Channel(s) : 6 channels
Channel positions : Front: L C R, Side: L R, LFE
Sampling rate : 48.0 KHz
Bit depth : 16 bits
Compression mode : Lossy
Stream size : 385 MiB (3%)
Title : Профессиональный многоголосый, R5
Language : Russian
Default : Yes
Forced : No

Audio #2
ID : 3
Format : AC-3
Format/Info : Audio Coding 3
Mode extension : CM (complete main)
Format settings, Endianness : Big
Codec ID : A_AC3
Duration : 2h 19mn
Bit rate mode : Constant
Bit rate : 192 Kbps
Channel(s) : 2 channels
Channel positions : Front: L R
Sampling rate : 48.0 KHz
Bit depth : 16 bits
Compression mode : Lossy
Stream size : 192 MiB (2%)
Title : Профессиональный многоголосый, Первый канал
Language : Russian
Default : No
Forced : No

Audio #3
ID : 4
Format : AC-3
Format/Info : Audio Coding 3
Mode extension : CM (complete main)
Format settings, Endianness : Big
Codec ID : A_AC3
Duration : 2h 19mn
Bit rate mode : Constant
Bit rate : 192 Kbps
Channel(s) : 2 channels
Channel positions : Front: L R
Sampling rate : 48.0 KHz
Bit depth : 16 bits
Compression mode : Lossy
Stream size : 192 MiB (2%)
Title : Профессиональный двухголосый, Рен ТВ
Language : Russian
Default : No
Forced : No

Audio #4
ID : 5
Format : AC-3
Format/Info : Audio Coding 3
Mode extension : CM (complete main)
Format settings, Endianness : Big
Codec ID : A_AC3
Duration : 2h 19mn
Bit rate mode : Constant
Bit rate : 192 Kbps
Channel(s) : 2 channels
Channel positions : Front: L R
Sampling rate : 48.0 KHz
Bit depth : 16 bits
Compression mode : Lossy
Stream size : 192 MiB (2%)
Title : профессиональный двухголосый, Премьер
Language : Russian
Default : No
Forced : No

Audio #5
ID : 6
Format : AC-3
Format/Info : Audio Coding 3
Mode extension : CM (complete main)
Format settings, Endianness : Big
Codec ID : A_AC3
Duration : 2h 19mn
Bit rate mode : Constant
Bit rate : 384 Kbps
Channel(s) : 6 channels
Channel positions : Front: L C R, Side: L R, LFE
Sampling rate : 48.0 KHz
Bit depth : 16 bits
Compression mode : Lossy
Stream size : 385 MiB (3%)
Title : профессиональный двухголосый, Визгунов & Woman
Language : Russian
Default : No
Forced : No

Audio #6
ID : 7
Format : AC-3
Format/Info : Audio Coding 3
Mode extension : CM (complete main)
Format settings, Endianness : Big
Codec ID : A_AC3
Duration : 2h 19mn
Bit rate mode : Constant
Bit rate : 640 Kbps
Channel(s) : 6 channels
Channel positions : Front: L C R, Side: L R, LFE
Sampling rate : 48.0 KHz
Bit depth : 16 bits
Compression mode : Lossy
Stream size : 641 MiB (5%)
Title : авторский, Гаврилов
Language : Russian
Default : No
Forced : No

Audio #7
ID : 8
Format : AC-3
Format/Info : Audio Coding 3
Mode extension : CM (complete main)
Format settings, Endianness : Big
Codec ID : A_AC3
Duration : 2h 19mn
Bit rate mode : Constant
Bit rate : 640 Kbps
Channel(s) : 6 channels
Channel positions : Front: L C R, Side: L R, LFE
Sampling rate : 48.0 KHz
Bit depth : 16 bits
Compression mode : Lossy
Stream size : 641 MiB (5%)
Title : авторский, Живов
Language : Russian
Default : No
Forced : No

Audio #8
ID : 9
Format : AC-3
Format/Info : Audio Coding 3
Mode extension : CM (complete main)
Format settings, Endianness : Big
Codec ID : A_AC3
Duration : 2h 19mn
Bit rate mode : Constant
Bit rate : 640 Kbps
Channel(s) : 6 channels
Channel positions : Front: L C R, Side: L R, LFE
Sampling rate : 48.0 KHz
Bit depth : 16 bits
Compression mode : Lossy
Stream size : 641 MiB (5%)
Title : English
Language : English
Default : No
Forced : No

Text
ID : 10
Format : UTF-8
Codec ID : S_TEXT/UTF8
Codec ID/Info : UTF-8 Plain Text
Title : Russian
Language : Russian
Default : No
Forced : No

Menu
00:00:00.000 : en:00:00:00.000
00:05:00.000 : en:00:05:00.000
00:10:00.000 : en:00:10:00.000
00:15:00.000 : en:00:15:00.000
00:20:00.000 : en:00:20:00.000
00:25:00.000 : en:00:25:00.000
00:30:00.000 : en:00:30:00.000
00:35:00.000 : en:00:35:00.000
00:40:00.000 : en:00:40:00.000
00:45:00.000 : en:00:45:00.000
00:50:00.000 : en:00:50:00.000
00:55:00.000 : en:00:55:00.000
01:00:00.000 : en:01:00:00.000
01:05:00.000 : en:01:05:00.000
01:10:00.000 : en:01:10:00.000
01:15:00.000 : en:01:15:00.000
01:20:00.000 : en:01:20:00.000
01:25:00.000 : en:01:25:00.000
01:30:00.000 : en:01:30:00.000
01:35:00.000 : en:01:35:00.000
01:40:00.000 : en:01:40:00.000
01:45:00.000 : en:01:45:00.000
01:50:00.000 : en:01:50:00.000
01:55:00.000 : en:01:55:00.000
02:00:00.000 : en:02:00:00.000
02:05:00.000 : en:02:05:00.000
02:10:00.000 : en:02:10:00.000
02:15:00.000 : en:02:15:00.000

x264

x264 [info]: frame I:1215 Avg QP:15.48 size:207909
x264 [info]: frame P:46170 Avg QP:17.69 size: 75990
x264 [info]: frame B:154004 Avg QP:19.70 size: 33756


Скачать Far_and_Away.1992.BDRip.1080p.denis100.mkv.torrent

просмотры: 4

Post Comment