Мультипликация

Снежная королева 3. Огонь и лед (2016) BDRip 1080p от Ash61 | 3D-Video | halfOU | iTunes


Снежная королева 3. Огонь и лед
The Snow Queen 3: Fire and Ice


Год выпуска: 2016
Страна: Россия ( Wizart Animation, Фонд Кино)
Жанр: Мультфильм, Комедия, Приключения, Семейный
Продолжительность: 01:29:10

Перевод: Не требуется

Режиссер: Алексей Цицилин / Aleksey Tsitsilin


Роли озвучивали: Наталия Быстрова (Герда), Филипп Лебедев (Роллан), Диомид Виноградов (Орм), Александр Груздев (Шаман / Демон), Михаил Тихонов (Хиппи / Мастер Вегард), Николай Быстров (Кай), Ольга Шорохова (Бабуля Орма / Учительница), Ольга Зубкова (Альфида / Атаманша), Всеволод Кузнецов (Аррог), Филл Савенков (Лукум), Олег Новиков (Рахат)


Описание: Редкий дар ввязываться во всевозможные неприятности — их семейная черта, да и что взять с тех, кто вырос среди снегов в компании троллей. Но повзрослев, Кай и Герда выходят на новый уровень — теперь они станут виновниками катастрофы мирового масштаба…


Доп. инфо: Русская дорога полностью синхронизирована.


Премьера: 23 декабря 2016 (29 декабря 2016)
Бюджет: RUR 350 000 000
Кассовые сборы (Россия): $5 044 127

.
За исходный BD 3D спасибо


Качество: BDRip (by Ash61)
Контейнер: MKV
Формат 3D: Half OverUnder / Вертикальная анаморфная стереопара
Порядок ракурсов: левый ракурс первый


Видео: AVC / 1920х1080p / 23,976 fps / 11.0 Mbps

Аудио:
#1 — Русский / AC3 / 48 KHz / 5.1 ch / 384 Kbps (Оригинал — iTunes)
#2 — Английский / AC3 / 48 KHz / 5.1 ch / 640 Kbps (Dubbing)

Субтитры: Отсутствуют

MediaInfo
General
Unique ID : 171241817063019481649275091293327412965 (0x80D3F96D1ED1F619B3CE019DD5B94EE5)
Complete name : D:TheSnowQueen3(2016)3D-halfOU(Ash61)iTunes.mkv
Format : Matroska
Format version : Version 2
File size : 7.49 GiB
Duration : 1 h 29 min
Overall bit rate : 12.0 Mb/s
Movie name : Снежная королева 3. Огонь и лед / The Snow Queen 3: Fire and Ice (2016) in 3D
Encoded date : UTC 2017-11-25 08:38:32
Writing application : mkvmerge v5.8.0 ('No Sleep / Pillow') built on Sep 2 2012 15:37:04
Writing library : libebml v1.2.3 + libmatroska v1.3.0

Video
ID : 1
Format : AVC
Format/Info : Advanced Video Codec
Format profile : [email protected]
Format settings, CABAC : Yes
Format settings, RefFrames : 4 frames
Codec ID : V_MPEG4/ISO/AVC
Duration : 1 h 29 min
Bit rate : 11.0 Mb/s
Width : 1 920 pixels
Height : 1 080 pixels
Display aspect ratio : 16:9
Frame rate mode : Constant
Frame rate : 23.976 (24000/1001) FPS
Color space : YUV
Chroma subsampling : 4:2:0
Bit depth : 8 bits
Scan type : Progressive
Bits/(Pixel*Frame) : 0.221
Stream size : 6.70 GiB (89%)
Title : BDRip by Ash61
Writing library : x264 core 146 r2538 121396c
Encoding settings : cabac=1 / ref=4 / deblock=1:-3:-3 / analyse=0x3:0x113 / me=umh / subme=10 / psy=1 / psy_rd=1.00:0.00 / mixed_ref=1 / me_range=32 / chroma_me=1 / trellis=2 / 8x8dct=1 / cqm=0 / deadzone=21,11 / fast_pskip=0 / chroma_qp_offset=-2 / threads=12 / lookahead_threads=2 / sliced_threads=0 / nr=0 / decimate=0 / interlaced=0 / bluray_compat=0 / constrained_intra=0 / bframes=8 / b_pyramid=2 / b_adapt=2 / b_bias=0 / direct=3 / weightb=1 / open_gop=0 / weightp=2 / keyint=250 / keyint_min=23 / scenecut=40 / intra_refresh=0 / rc_lookahead=60 / rc=2pass / mbtree=0 / bitrate=11000 / ratetol=1.0 / qcomp=0.70 / qpmin=0 / qpmax=69 / qpstep=4 / cplxblur=20.0 / qblur=0.5 / vbv_maxrate=40000 / vbv_bufsize=30000 / nal_hrd=none / filler=0 / frame-packing=4 / ip_ratio=1.40 / pb_ratio=1.30 / aq=1:0.70
Language : Russian
Default : Yes
Forced : No

Audio #1
ID : 2
Format : AC-3
Format/Info : Audio Coding 3
Format settings, Endianness : Big
Codec ID : A_AC3
Duration : 1 h 29 min
Bit rate mode : Constant
Bit rate : 384 kb/s
Channel(s) : 6 channels
Channel positions : Front: L C R, Side: L R, LFE
Sampling rate : 48.0 kHz
Frame rate : 31.250 FPS (1536 SPF)
Bit depth : 16 bits
Compression mode : Lossy
Stream size : 245 MiB (3%)
Title : Оригинал — iTunes (редакция Ash61)
Language : Russian
Service kind : Complete Main
Default : Yes
Forced : No

Audio #2
ID : 3
Format : AC-3
Format/Info : Audio Coding 3
Format settings, Endianness : Big
Codec ID : A_AC3
Duration : 1 h 29 min
Bit rate mode : Constant
Bit rate : 640 kb/s
Channel(s) : 6 channels
Channel positions : Front: L C R, Side: L R, LFE
Sampling rate : 48.0 kHz
Frame rate : 31.250 FPS (1536 SPF)
Bit depth : 16 bits
Compression mode : Lossy
Stream size : 408 MiB (5%)
Title : Дубляж
Language : English
Service kind : Complete Main
Default : No
Forced : No

Menu
00:00:00.000 : :1
00:07:50.093 : :2
00:15:37.686 : :3
00:21:28.703 : :4
00:28:56.733 : :5
00:37:13.146 : :6
00:43:49.668 : :7
00:50:59.847 : :8
01:00:15.612 : :9
01:05:31.885 : :10
01:14:14.658 : :11
01:20:08.177 : :12
Скриншоты

Для оценки 3Д — Анимированные скрины




















Каталог фильмов, выходивших в 3Д, со ссылками (вер. 31.10.2017)


О форматах и методах просмотра 3D




Скачать TheSnowQueen320163D-halfOUAsh61iTunes.mkv.torrent

просмотры: 5

Post Comment