Вестерн Зарубежные фильмы

Далеко-далеко / Far and Away (1992) BDRip 720p от MediaClub | P, P2, A

Информация о фильме
Название: Далеко-далеко (Далекая страна)
Оригинальное название: Far and Away
Год выпуска: 1992
Жанр: Драма, мелодрама, приключения, вестерн
Режиссер: Рон Ховард
В ролях: Том Круз, Николь Кидман, Томас Гибсон, Роберт Проски, Барбара Бэбкок, Колм Мини, Мишель Джонсон, Джаред Харрис, Сирил Кьюсак, Эйлин Поллок, Дуглас Джиллисон, Уэйн Грейс, Ниал Тойбин, Бэрри МакГоверн, Гэри Ли Дэвис, Стив О’Доннелл, Пидар Ламб, Марк Малхолланд, П.Дж. Брэйди, Уэсли Мерфи, Джимми Кеог, Дж.Дж. Дэвлин, Джерри Уолш, Брендан Колдвелл, Дерри Пауэр, Ноэль О’Донован, Макдара О Фатарта, Эйлин Колган, Кейт Флинн, Джоан О’Хара, Фрэнки МакКафферти, Полл Муссулидес, Пэт Киневейн, Доннча Краули, Тим МакДоннел, Тодд Халлоуэлл, Кеннет МакКласки, Брендан Эллис, Клинт Ховард, Джеффри Эндрюс, Джуди

Описание: Прекрасно поставленная, выдержанная и изумительно сыгранная картина об эмигрантах, направляющихся в Новый Свет в XIX столетии. Еще одна история из времен Дикого Запада — и редкая возможность увидеть вместе на экране семейный звездный дуэт — Тома Круза и Николь Кидман. Рыжеволосая кудрявая красавица и ее скромный, но не имеющий ни гроша за душой возлюбленный, ирландец, отправляются на заокеанский далекий Запад в поисках счастья. Им приходится преодолеть массу препятствий, но в конце концов удача улыбается герою Тома Круза и он окончательно покоряет сердце своей возлюбленной, влившись в славные ряды пионеров американского Запада.

Страна: США, Австралия
Студия: Imagine Films Entertainment, Universal Pictures
Продолжительность: 02:19:59
Перевод: Профессиональный многоголосый, профессиональный двухголосый, авторский одноголосый

Файл
Качество: BDRip 720p
Видео: MPEG-4 AVC, 4000 Кбит/с, 1280×544, 23.976 кадр/с
Аудио #1: Русский (AC3, 6 ch, 384 Кбит/с) / Профессиональный многоголосый (R5)
Аудио #2: Русский (AC3, 2 ch, 192 Кбит/с) / Профессиональный многоголосый (Первый канал)
Аудио #3: Русский (AC3, 2 ch, 192 Кбит/с) / Профессиональный двухголосый (Рен ТВ)
Аудио #4: Русский (AC3, 2 ch, 192 Кбит/с) / Профессиональный двухголосый (Премьер)
Аудио #5: Русский (AC3, 6 ch, 384 Кбит/с) / Профессиональный двухголосый (Визгунов и дама)
Аудио #6: Русский (DTS, 6 ch, 1509 Кбит/с) / Авторский одноголосый (Гаврилов)
Аудио #7: Русский (DTS, 6 ch, 1509 Кбит/с) / Авторский одноголосый (Живов)
Аудио #8: Английский (DTS, 6 ch, 1509 Кбит/с)
Субтитры: Русские, английские

Семпл

Скриншоты


MI
x264 [info]: frame I:1251 Avg QP:15.14 size:105136
x264 [info]: frame P:45969 Avg QP:18.03 size: 39205
x264 [info]: frame B:154170 Avg QP:19.63 size: 14677
x264 [info]: consecutive B-frames: 2.1% 3.4% 9.0% 29.0% 11.4% 35.2% 3.4% 4.2% 0.4% 0.3% 0.3% 1.0% 0.2%
*****************************************************************************************************************
Общее
Уникальный идентификатор : 235865273492216121812248711032173140069 (0xB171FFD2842EBB8F8E2EF290D7369865)
Полное имя : D:Mои раздачиDaleko-Daleko.1992.BDRip.720p-MediaClub.mkv
Формат : Matroska
Версия формата : Version 4 / Version 2
Размер файла : 9,65 Гбайт
Продолжительность : 2 ч. 19 м.
Общий поток : 9873 Кбит/сек
Название фильма : -=MediaClub-kaspr=-
Дата кодирования : UTC 2014-04-11 17:21:12
Программа кодирования : mkvmerge v6.1.0 ('Old Devil') built on Mar 4 2013 09:10:42
Библиотека кодирования : libebml v1.3.0 + libmatroska v1.4.0

Видео
Идентификатор : 1
Формат : AVC
Формат/Информация : Advanced Video Codec
Профиль формата : [email protected]
Параметр CABAC формата : Да
Параметр ReFrames формата : 9 кадров
Идентификатор кодека : V_MPEG4/ISO/AVC
Продолжительность : 2 ч. 19 м.
Битрейт : 3806 Кбит/сек
Номинальный битрейт : 4000 Кбит/сек
Ширина : 1280 пикселей
Высота : 544 пикселя
Соотношение сторон : 2,35:1
Режим частоты кадров : Постоянный
Частота кадров : 23,976 кадра/сек
Цветовое пространство : YUV
Субдискретизация насыщенности : 4:2:0
Битовая глубина : 8 бит
Тип развёртки : Прогрессивная
Бит/(Пиксели*Кадры) : 0.228
Размер потока : 3,72 Гбайт (39%)
Заголовок : -=MediaClub-kaspr=-
Библиотека кодирования : x264 core 142 r2409+42 04be48a tMod [[email protected]:2:0 X86_64]
Настройки программы : cabac=1 / ref=9 / deblock=1:-3:-3 / analyse=0x3:0x113 / me=umh / subme=11 / psy=1 / fade_compensate=0.00 / psy_rd=1.00:0.20 / mixed_ref=1 / me_range=32 / chroma_me=1 / trellis=2 / 8x8dct=1 / cqm=0 / deadzone=21,11 / fast_pskip=0 / chroma_qp_offset=-3 / threads=12 / lookahead_threads=3 / sliced_threads=0 / nr=0 / decimate=0 / interlaced=0 / bluray_compat=0 / constrained_intra=0 / fgo=0 / bframes=12 / b_pyramid=2 / b_adapt=2 / b_bias=0 / direct=3 / weightb=1 / open_gop=0 / weightp=2 / keyint=240 / keyint_min=23 / scenecut=40 / intra_refresh=0 / rc=2pass / mbtree=0 / bitrate=4000 / ratetol=1.0 / qcomp=0.60 / qpmin=0:0:0 / qpmax=69:69:69 / qpstep=4 / cplxblur=20.0 / qblur=0.5 / ip_ratio=1.40 / pb_ratio=1.30 / aq=2:0.80 / aq-sensitivity=10.00 / aq-factor=1.00:1.00:1.00 / aq2=0 / aq3=0
Default : Да
Forced : Да

Аудио #1
Идентификатор : 2
Формат : AC-3
Формат/Информация : Audio Coding 3
Расширение режима : CM (complete main)
Параметр Endianness формата : Big
Идентификатор кодека : A_AC3
Продолжительность : 2 ч. 19 м.
Вид битрейта : Постоянный
Битрейт : 384 Кбит/сек
Каналы : 6 каналов
Расположение каналов : Front: L C R, Side: L R, LFE
Частота : 48,0 КГц
Битовая глубина : 16 бит
Метод сжатия : С потерями
Размер потока : 385 Мбайт (4%)
Заголовок : MVO-R5
Язык : Russian
Default : Да
Forced : Да

Аудио #2
Идентификатор : 3
Формат : AC-3
Формат/Информация : Audio Coding 3
Расширение режима : CM (complete main)
Параметр Endianness формата : Big
Идентификатор кодека : A_AC3
Продолжительность : 2 ч. 19 м.
Вид битрейта : Постоянный
Битрейт : 192 Кбит/сек
Каналы : 2 канала
Расположение каналов : Front: L R
Частота : 48,0 КГц
Битовая глубина : 16 бит
Метод сжатия : С потерями
Размер потока : 192 Мбайт (2%)
Заголовок : MVO-Первый канал
Язык : Russian
Default : Нет
Forced : Нет

Аудио #3
Идентификатор : 4
Формат : AC-3
Формат/Информация : Audio Coding 3
Расширение режима : CM (complete main)
Параметр Endianness формата : Big
Идентификатор кодека : A_AC3
Продолжительность : 2 ч. 19 м.
Вид битрейта : Постоянный
Битрейт : 192 Кбит/сек
Каналы : 2 канала
Расположение каналов : Front: L R
Частота : 48,0 КГц
Битовая глубина : 16 бит
Метод сжатия : С потерями
Размер потока : 192 Мбайт (2%)
Заголовок : DVO-Рен ТВ
Язык : Russian
Default : Нет
Forced : Нет

Аудио #4
Идентификатор : 5
Формат : AC-3
Формат/Информация : Audio Coding 3
Расширение режима : CM (complete main)
Параметр Endianness формата : Big
Идентификатор кодека : A_AC3
Продолжительность : 2 ч. 19 м.
Вид битрейта : Постоянный
Битрейт : 192 Кбит/сек
Каналы : 2 канала
Расположение каналов : Front: L R
Частота : 48,0 КГц
Битовая глубина : 16 бит
Метод сжатия : С потерями
Размер потока : 192 Мбайт (2%)
Заголовок : DVO-Премьер
Язык : Russian
Default : Нет
Forced : Нет

Аудио #5
Идентификатор : 6
Формат : AC-3
Формат/Информация : Audio Coding 3
Расширение режима : CM (complete main)
Параметр Endianness формата : Big
Идентификатор кодека : A_AC3
Продолжительность : 2 ч. 19 м.
Вид битрейта : Постоянный
Битрейт : 384 Кбит/сек
Каналы : 6 каналов
Расположение каналов : Front: L C R, Side: L R, LFE
Частота : 48,0 КГц
Битовая глубина : 16 бит
Метод сжатия : С потерями
Размер потока : 385 Мбайт (4%)
Заголовок : DVO-Визгунов & Woman
Язык : Russian
Default : Нет
Forced : Нет

Аудио #6
Идентификатор : 7
Формат : DTS
Формат/Информация : Digital Theater Systems
Режим : 16
Параметр Endianness формата : Big
Идентификатор кодека : A_DTS
Продолжительность : 2 ч. 19 м.
Вид битрейта : Постоянный
Битрейт : 1509 Кбит/сек
Каналы : 6 каналов
Расположение каналов : Front: L C R, Side: L R, LFE
Частота : 48,0 КГц
Битовая глубина : 24 бит
Метод сжатия : С потерями
Размер потока : 1,48 Гбайт (15%)
Заголовок : AVO-Гаврилов
Язык : Russian
Default : Нет
Forced : Нет

Аудио #7
Идентификатор : 8
Формат : DTS
Формат/Информация : Digital Theater Systems
Режим : 16
Параметр Endianness формата : Big
Идентификатор кодека : A_DTS
Продолжительность : 2 ч. 19 м.
Вид битрейта : Постоянный
Битрейт : 1509 Кбит/сек
Каналы : 6 каналов
Расположение каналов : Front: L C R, Side: L R, LFE
Частота : 48,0 КГц
Битовая глубина : 24 бит
Метод сжатия : С потерями
Размер потока : 1,48 Гбайт (15%)
Заголовок : AVO-Живов
Язык : Russian
Default : Нет
Forced : Нет

Аудио #8
Идентификатор : 9
Формат : DTS
Формат/Информация : Digital Theater Systems
Режим : 16
Параметр Endianness формата : Big
Идентификатор кодека : A_DTS
Продолжительность : 2 ч. 19 м.
Вид битрейта : Постоянный
Битрейт : 1509 Кбит/сек
Каналы : 6 каналов
Расположение каналов : Front: L C R, Side: L R, LFE
Частота : 48,0 КГц
Битовая глубина : 24 бит
Метод сжатия : С потерями
Размер потока : 1,48 Гбайт (15%)
Язык : English
Default : Нет
Forced : Нет

Текст #1
Идентификатор : 10
Формат : UTF-8
Идентификатор кодека : S_TEXT/UTF8
Идентификатор кодека/Информация : UTF-8 Plain Text
Язык : Russian
Default : Нет
Forced : Нет

Текст #2
Идентификатор : 11
Формат : UTF-8
Идентификатор кодека : S_TEXT/UTF8
Идентификатор кодека/Информация : UTF-8 Plain Text
Язык : English
Default : Нет
Forced : Нет

Меню
00:00:00.000 : en:Chapter 01
00:05:00.000 : en:Chapter 02
00:10:00.000 : en:Chapter 03
00:15:00.000 : en:Chapter 04
00:20:00.000 : en:Chapter 05
00:25:00.000 : en:Chapter 06
00:30:00.000 : en:Chapter 07
00:35:00.000 : en:Chapter 08
00:40:00.000 : en:Chapter 09
00:45:00.000 : en:Chapter 10
00:50:00.000 : en:Chapter 11
00:55:00.000 : en:Chapter 12
01:00:00.000 : en:Chapter 13
01:05:00.000 : en:Chapter 14
01:10:00.000 : en:Chapter 15
01:15:00.000 : en:Chapter 16
01:20:00.000 : en:Chapter 17
01:25:00.000 : en:Chapter 18
01:30:00.000 : en:Chapter 19
01:35:00.000 : en:Chapter 20
01:40:00.000 : en:Chapter 21
01:45:00.000 : en:Chapter 22
01:50:00.000 : en:Chapter 23
01:55:00.000 : en:Chapter 24
02:00:00.000 : en:Chapter 25
02:05:00.000 : en:Chapter 26
02:10:00.000 : en:Chapter 27
02:15:00.000 : en:Chapter 28

Релиз: |


Скачать Daleko-Daleko.1992.BDRip.720p-MediaClub.mkv.torrent

просмотры: 2

Post Comment