Боевик Зарубежные фильмы

Почтальон / The Postman (1997) BDRip-AVC от ExKinoRay | D, P

Информация о фильме
Название: Почтальон
Оригинальное название: The Postman
Год выхода: 1997
Жанр: фантастика, боевик, драма, приключения
Режиссер: Кевин Костнер
В ролях: Кевин Костнер, Уилл Пэттон, Лоренц Тейт, Оливия Уильямс, Джеймс Руссо, Дэниэл фон Барген, Том Петти, Скотт Бэйрстоу, Джованни Рибизи, Роберта Максвелл

О фильме :
Фильм снят по книге Дэвида Брина. Действие происходит в будущем. После глобальной войны и эпидемии выжившие остатки людей селятся разрозненными группами на территории бывших Соединенных Штатов Америки. Герой Кевина Костнера предпочитает жить одиночкой. Он скитается вместе со своим дрессированным мулом из селения в селение, давая представления из Шекспира. Правит всем тиран — генерал Бетлехем. Его армия собирает дань и рекрутов со всех, кто пытается жить мирно. Героя фильма насильно взяли в армию генерала, но он бежал и нашел в джипе скелет почтальона, надел его форму и взял сумку с письмами. Придя в один из лагерей, он представился почтальоном новых возрожденных Соединенных Штатов Америки. Люди поверили ему, также в городке он нашел свою любовь… Десятки последователей почтальона стали доставлять письма, что привело к вооруженному столкновению сил генерала с новой армией Свободы.

Страна: США
Студия: Tig Productions, Warner Bros. Pictures Co.
Продолжительность: 02:57:49
Перевод: Профессиональный (полное дублирование), Профессиональный (многоголосый, закадровый)

Файл
Формат: MKV
Качество: BDRip-AVC (BDRemux 1080p)
Видео: MPEG-4 AVC, 768×320, ~ 1014 Кбит/с
Аудио 1: AAC-LC, 2 ch, ~ 76 Кбит/с | Дубляж
Аудио 2: AAC-LC, 2 ch, ~ 76 Кбит/с | Профессиональный многоголосый
Субтитры: Русские, английские

MI
Общее
Уникальный идентификатор : 230268348014484788064947759006082436633 (0xAD3C121755D347ECADD1C5A69BB88E19)
Полное имя : D:MOVIESThe_Postman.1997.ExKinoRay.mkv
Формат : Matroska
Версия формата : Version 4 / Version 2
Размер файла : 1,45 Гбайт
Продолжительность : 2 ч. 57 м.
Общий поток : 1169 Кбит/сек
Дата кодирования : UTC 2017-12-06 07:04:52
Программа кодирования : mkvmerge v15.0.0 ('Duel with the Devil') 64-bit
Библиотека кодирования : libebml v1.3.5 + libmatroska v1.4.5

Видео
Идентификатор : 1
Формат : AVC
Формат/Информация : Advanced Video Codec
Профиль формата : [email protected]
Параметр CABAC формата : Да
Параметр RefFrames формата : 10 кадров
Идентификатор кодека : V_MPEG4/ISO/AVC
Продолжительность : 2 ч. 57 м.
Битрейт : 1014 Кбит/сек
Ширина : 768 пикселей
Высота : 320 пикселей
Соотношение сторон : 2,40:1
Режим частоты кадров : Постоянный
Частота кадров : 23,976 (24000/1001) кадра/сек
Цветовое пространство : YUV
Субдискретизация насыщенности : 4:2:0
Битовая глубина : 8 бит
Тип развёртки : Прогрессивная
Бит/(Пиксели*Кадры) : 0.172
Размер потока : 1,26 Гбайт (87%)
Библиотека кодирования : x264 core 152 r2851kMod ba24899
Настройки программы : cabac=1 / ref=10 / deblock=1:-2:-2 / analyse=0x3:0x133 / me=umh / subme=11 / psy=1 / fade_compensate=0.00 / psy_rd=1.00:0.05 / mixed_ref=1 / me_range=32 / chroma_me=1 / trellis=2 / 8x8dct=1 / cqm=0 / deadzone=21,11 / fast_pskip=0 / chroma_qp_offset=-3 / threads=6 / lookahead_threads=1 / sliced_threads=0 / nr=0 / decimate=0 / interlaced=0 / bluray_compat=0 / constrained_intra=0 / bframes=10 / b_pyramid=2 / b_adapt=2 / b_bias=0 / direct=3 / weightb=1 / open_gop=0 / weightp=2 / keyint=240 / keyint_min=23 / scenecut=40 / intra_refresh=0 / rc_lookahead=40 / rc=2pass / mbtree=1 / bitrate=1014 / ratetol=1.0 / qcomp=0.60 / qpmin=0 / qpmax=69 / qpstep=4 / cplxblur=20.0 / qblur=0.5 / vbv_maxrate=50000 / vbv_bufsize=62500 / nal_hrd=none / filler=0 / ip_ratio=1.40 / aq=3:1.00
Default : Да
Forced : Нет

Аудио #1
Идентификатор : 2
Формат : AAC
Формат/Информация : Advanced Audio Codec
Профиль формата : LC
Идентификатор кодека : A_AAC
Продолжительность : 2 ч. 57 м.
Битрейт : 76,0 Кбит/сек
Каналы : 2 канала
Расположение каналов : Front: L R
Частота : 48,0 КГц
Частота кадров : 46,875 кадров/сек (1024 SPF)
Метод сжатия : С потерями
Задержка видео : 9 мс.
Размер потока : 96,7 Мбайт (7%)
Язык : Russian
Default : Да
Forced : Нет

Аудио #2
Идентификатор : 3
Формат : AAC
Формат/Информация : Advanced Audio Codec
Профиль формата : LC
Идентификатор кодека : A_AAC
Продолжительность : 2 ч. 57 м.
Битрейт : 76,0 Кбит/сек
Каналы : 2 канала
Расположение каналов : Front: L R
Частота : 48,0 КГц
Частота кадров : 46,875 кадров/сек (1024 SPF)
Метод сжатия : С потерями
Задержка видео : 9 мс.
Размер потока : 96,7 Мбайт (7%)
Язык : Russian
Default : Нет
Forced : Нет

Текст #1
Идентификатор : 4
Формат : UTF-8
Идентификатор кодека : S_TEXT/UTF8
Идентификатор кодека/Информация : UTF-8 Plain Text
Продолжительность : 2 ч. 50 м.
Битрейт : 73 бит/сек
ElementCount : 1633
Размер потока : 92,2 Кбайт (0%)
Заголовок : Russian UTF-8 SRT
Язык : Russian
Default : Нет
Forced : Нет

Текст #2
Идентификатор : 5
Формат : UTF-8
Идентификатор кодека : S_TEXT/UTF8
Идентификатор кодека/Информация : UTF-8 Plain Text
Продолжительность : 2 ч. 57 м.
Битрейт : 35 бит/сек
ElementCount : 1800
Размер потока : 45,9 Кбайт (0%)
Заголовок : Englisg UTF-8 SRT
Язык : English
Default : Нет
Forced : Нет

Меню
00:00:00.000 : en:01. He walked alone (Credits)
00:03:48.979 : en:02. Service station riches
00:06:53.204 : en:03. Sort of Shakespeare
00:11:18.428 : en:04. The con
00:15:33.933 : en:05. Not a fighter
00:21:55.314 : en:06. The best years?
00:27:15.050 : en:07. Only one penalty
00:30:55.228 : en:08. Two men's plans
00:34:45.542 : en:09. Rescue mission
00:38:04.908 : en:10. Downriver
00:41:08.299 : en:11. The lion's share
00:44:11.858 : en:12. New clothes
00:50:03.334 : en:13. Your postman
00:55:13.644 : en:14. Pres. Starkey and other tall tales
00:58:39.808 : en:15. Bodyfather needed (You Don't Have to Be So Nice)
01:02:12.646 : en:16. What he's looking for
01:04:50.637 : en:17. Oath of office
01:08:37.405 : en:18. Easier with eyes closed
01:14:04.148 : en:19. Are you really (America the Beautiful)?
01:17:34.233 : en:20. Dreams up in flames
01:20:45.799 : en:21. Dead-because he can
01:26:43.407 : en:22. Hannibal at the gates
01:30:11.197 : en:23. Dictating justice
01:32:59.365 : en:24. Ride to freedom
01:34:40.925 : en:25. Abby takes charge
01:37:09.157 : en:26. "Don't make me use thsi"
01:41:00.888 : en:27. On his feet
01:43:07.098 : en:28. The truth about Michael
01:47:08.839 : en:29. In person
01:52:51.264 : en:30. Appointed rounds
02:00:31.266 : en:31. Dancing and dying (Comeand Get Your Love, Almost Home)
02:07:00.071 : en:32. Ambush at Elvis
02:11:41.602 : en:33. Massacre at Pineview
02:17:03.090 : en:34. Presidential letter
02:20:05.689 : en:35. A better man
02:22:09.271 : en:36. A bargaining chip
02:26:00.752 : en:37. Famous in Bridge City
02:30:58.967 : en:38. Abby's farewell
02:33:39.419 : en:39. Hope in a basket
02:36:10.069 : en:40. Field of battle
02:39:22.845 : en:41. Law 7
02:42:21.857 : en:42. New laws
02:47:36.880 : en:43. Hope and remembrance
02:51:35.285 : en:44. End Credits (You Didn't Have to Be So Nice)

Скриншоты


Релиз от:


Скачать The_Postman.1997.ExKinoRay.mkv.torrent

просмотры: 10

Post Comment