Боевик Зарубежные фильмы

Напролом / The Hard Way (1991) HDRip от ExKinoRay | D

Информация о фильме
Название: Напролом
Оригинальное название: The Hard Way
Год выхода: 1991
Жанр: Боевик, комедия, криминал
Режиссер: Джон Бэдэм
В ролях: Майкл Дж. Фокс, Джеймс Вудс, Стивен Лэнг, Аннабелла Шиорра, Джон Каподиче, Луис Гусман, ЭлЭл Кул Джей, Мэри Мара, Делрой Линдо, Конрад Робертс

О фильме:
Ник Лэнг — знаменитая голливудская звезда. У Ника есть лишь одна мечта: расстаться со своим имиджем «славного парня» и сыграть настоящего «крутого» героя. И тут, как раз кстати, возникает возможность исполнить роль отважного детектива. Чтобы как можно лучше узнать о своём новом персонаже, Лэнг отправляется в Нью-Йорк, где знакомится с бывалым сыщиком Джоном Моссом, который должен помочь ему освоить полицейские приёмы. Странная парочка отправляется на поиски самого настоящего серийного убийцы, терроризирующего весь город…

Семпл

Выпущено: США, Universal Pictures
Продолжительность: 01:50:44
Перевод: Дублированный

Файл
Кодек: XviD
Качество: HDRip
Видео: 640×272 (2.35:1), 23.976 fps, XviD build 73 ~810 kbps avg, 0.19 bit/pixel
Звук: 48 kHz, MPEG Layer 3, 2 ch, ~128.00 kbps avg
Субтитры: Отсутствуют

MI
General
Complete name : D:Naprolom.1991.HDRip by ExKinoRay.avi
Format : AVI
Format/Info : Audio Video Interleave
File size : 751 MiB
Duration : 1 h 50 min
Overall bit rate : 948 kb/s
Writing application : VirtualDubMod 1.5.10.3 | www.virtualdub-fr.org || (build 2550/release)
Writing library : VirtualDubMod build 2550/release

Video
ID : 0
Format : MPEG-4 Visual
Format profile : Advanced [email protected]
Format settings : BVOP1 / Custom Matrix
Format settings, BVOP : 1
Format settings, QPel : No
Format settings, GMC : No warppoints
Format settings, Matrix : Custom
Codec ID : XVID
Codec ID/Hint : XviD
Duration : 1 h 50 min
Bit rate : 810 kb/s
Width : 640 pixels
Height : 272 pixels
Display aspect ratio : 2.35:1
Frame rate : 23.976 (24000/1001) FPS
Original frame rate : 23.976 (23976/1000) FPS
Color space : YUV
Chroma subsampling : 4:2:0
Bit depth : 8 bits
Scan type : Progressive
Compression mode : Lossy
Bits/(Pixel*Frame) : 0.194
Stream size : 642 MiB (86%)
Writing library : XviD 73

Audio
ID : 1
Format : MPEG Audio
Format version : Version 1
Format profile : Layer 3
Codec ID : 55
Codec ID/Hint : MP3
Duration : 1 h 50 min
Bit rate mode : Constant
Bit rate : 128 kb/s
Channel(s) : 2 channels
Sampling rate : 48.0 kHz
Compression mode : Lossy
Stream size : 101 MiB (14%)
Alignment : Aligned on interleaves
Interleave, duration : 42 ms (1.00 video frame)
Interleave, preload duratio : 504 ms
Writing library : LAME3.99r
Encoding settings : -m s -V 4 -q 2 -lowpass 17 -b 128
Скриншоты

Релиз от:


Скачать Naprolom.1991.HDRip_by_ExKinoRay.avi.torrent

просмотры: 1

Post Comment