Детектив Зарубежные фильмы

Проклятие Аннабель: Зарождение зла / Annabelle: Creation (2017) BDRip-AVC от New-Team | Лицензия



Группа New-Team ВКонтакте
Подписывайтесь так же на мою группу ВКонтакте stalkerok | AVC рипы
Ссылка в группе New-Team
Присоединяйтесь!


Проклятие Аннабель: Зарождение зла
Annabelle: Creation

«Новый ужас вселенной 'Заклятия'»


Страна: США
Жанр: ужасы, триллер, детектив

Год выпуска: 2017
Продолжительность: 01:49:42

Перевод: Профессиональный (полное дублирование) [Blu-Ray CEE]
Субтитры: русские (форсированные, полные)
Оригинальная аудиодорожка: нет

Режиссер: Дэвид Ф. Сандберг / David F. Sandberg

В ролях: Энтони ЛаПалья, Самара Ли, Миранда Отто, Брэд Гринквист, Лулу Уилсон, Талита Бейтман, Стефани Сигман, Марк Брэмхолл, Грэйс Фултон, Филиппа Култхард, Тайлер Бак, Lou Lou Safran

Описание:
Через несколько лет после трагической гибели маленькой дочери кукольник и его жена приглашают в свой дом монахиню и нескольких девочек из приюта, вскоре становящихся мишенью для одержимого создания кукольника — Аннабель.

Релиз:

Автор рипа: stalkerok

Сэмпл

Качество видео: BDRip-AVC [Annabelle.Creation.2017.D.BDREMUX.1080p.ExKinoRay]
Формат видео: MKV
Видео кодек: AVC
Аудио кодек: AC3
Видео: 1482 Кбит/сек, 1152*480 (2,40:1), в 23,976 (24000/1001) кадра/сек, AVC
Аудио: русский, 448 Кбит/сек, 48,0 КГц, 6 каналов, AC-3
Навигация по главам: есть

x264/MediaInfo

x264 [info]: frame I:1222 Avg QP:15.32 size: 48719
x264 [info]: frame P:27546 Avg QP:17.18 size: 17114
x264 [info]: frame B:129063 Avg QP:19.72 size: 4690

Общее
Уникальный идентификатор : 214375434538641610656636058390260496764 (0xA14734F58E8B0DA2B6E342BC0262397C)
Полное имя : M:!Rips2017Annabelle CreationAnnabelle.Creation.2017.BDRip-AVC.RUS.stalkerok.new-team.mkv
Формат : Matroska
Версия формата : Version 4 / Version 2
Размер файла : 1,48 Гбайт
Продолжительность : 1 ч. 49 м.
Общий поток : 1931 Кбит/сек
Название фильма : Annabelle: Creation (2017) (Rip by stalkerok)
Дата кодирования : UTC 2017-11-25 17:01:56
Программа кодирования : mkvmerge v8.6.1 ('Flying') 64bit
Библиотека кодирования : libebml v1.3.3 + libmatroska v1.4.4

Видео
Идентификатор : 1
Формат : AVC
Формат/Информация : Advanced Video Codec
Профиль формата : [email protected]
Параметр CABAC формата : Да
Параметр ReFrames формата : 15 кадров
Идентификатор кодека : V_MPEG4/ISO/AVC
Продолжительность : 1 ч. 49 м.
Битрейт : 1482 Кбит/сек
Ширина : 1152 пикселя
Высота : 480 пикселей
Соотношение сторон : 2,40:1
Режим частоты кадров : Постоянный
Частота кадров : 23,976 (24000/1001) кадра/сек
Цветовое пространство : YUV
Субдискретизация насыщенности : 4:2:0
Битовая глубина : 8 бит
Тип развёртки : Прогрессивная
Бит/(Пиксели*Кадры) : 0.112
Размер потока : 1,14 Гбайт (77%)
Заголовок : Annabelle: Creation (2017) (Rip by stalkerok)
Библиотека кодирования : x264 core 150 r2833kMod df79067
Настройки программы : cabac=1 / ref=15 / deblock=1:-3:-2 / analyse=0x3:0x133 / me=umh / subme=11 / psy=1 / fade_compensate=0.00 / psy_rd=1.00:0.00 / mixed_ref=1 / me_range=32 / chroma_me=1 / trellis=2 / 8x8dct=1 / cqm=0 / deadzone=21,11 / fast_pskip=0 / chroma_qp_offset=-2 / threads=12 / lookahead_threads=3 / sliced_threads=0 / nr=0 / decimate=1 / interlaced=0 / bluray_compat=0 / constrained_intra=0 / bframes=15 / b_pyramid=2 / b_adapt=2 / b_bias=0 / direct=3 / weightb=1 / open_gop=0 / weightp=2 / keyint=240 / keyint_min=23 / scenecut=40 / intra_refresh=0 / rc_lookahead=60 / rc=crf / mbtree=0 / crf=18.5000 / qcomp=0.65 / qpmin=0 / qpmax=69 / qpstep=4 / vbv_maxrate=50000 / vbv_bufsize=62500 / crf_max=0.0 / nal_hrd=none / filler=0 / ip_ratio=1.40 / pb_ratio=1.30 / aq=3:0.80 / zones=149091,151696,q=32/152392,156857,q=34/157536,157830,q=34
Default : Да
Forced : Нет

Аудио
Идентификатор : 2
Формат : AC-3
Формат/Информация : Audio Coding 3
Расширение режима : CM (complete main)
Параметр Endianness формата : Big
Идентификатор кодека : A_AC3
Продолжительность : 1 ч. 49 м.
Вид битрейта : Постоянный
Битрейт : 448 Кбит/сек
Каналы : 6 каналов
Расположение каналов : Front: L C R, Side: L R, LFE
Частота : 48,0 КГц
Частота кадров : 31,250 кадров/сек (1536 spf)
Метод сжатия : С потерями
Размер потока : 352 Мбайт (23%)
Язык : Russian
Default : Да
Forced : Нет

Текст #1
Идентификатор : 3
Формат : UTF-8
Идентификатор кодека : S_TEXT/UTF8
Идентификатор кодека/Информация : UTF-8 Plain Text
Продолжительность : 1 ч. 47 м.
Битрейт : 0 бит/сек
Count of elements : 7
Размер потока : 267 байт (0%)
Заголовок : Forced
Язык : Russian
Default : Да
Forced : Нет

Текст #2
Идентификатор : 4
Формат : UTF-8
Идентификатор кодека : S_TEXT/UTF8
Идентификатор кодека/Информация : UTF-8 Plain Text
Продолжительность : 1 ч. 47 м.
Битрейт : 37 бит/сек
Count of elements : 702
Размер потока : 29,4 Кбайт (0%)
Заголовок : Full
Язык : Russian
Default : Нет
Forced : Нет

Меню
00:00:00.000 : en:Chapter 1
00:11:25.351 : en:Chapter 2
00:20:35.067 : en:Chapter 3
00:30:33.290 : en:Chapter 4
00:42:03.604 : en:Chapter 5
00:52:39.239 : en:Chapter 6
01:03:12.497 : en:Chapter 7
01:13:14.682 : en:Chapter 8
01:23:55.614 : en:Chapter 9
01:33:19.302 : en:Chapter 10
01:43:27.618 : en:Chapter 11



Скачать Annabelle.Creation.2017.BDRip-AVC.RUS.stalkerok.torrent

просмотры: 3

Post Comment