Биография Зарубежные фильмы

Нет пути назад: Боб Дилан / No Direction Home: Bob Dylan (2005) DVDRip | P1

Информация о фильме
Название: Нет пути назад: Боб Дилан
Оригинальное название: No Direction Home: Bob Dylan
Год выхода: 2005
Жанр: документальный, биография, музыка
Режиссер: Мартин Скорсезе
В ролях: Боб Дилан, Б.Дж. Рольфцен, Дик Кангас, Лайам Клэнси, Тони Гловер, Пол Нельсон, Аллен Гинсберг, Дэйв Ван, Ронк, Мария Малдур, Джон Коэн

О фильме:
В фильме показаны пять лет из жизни Дилана — от его прибытия в Нью-Йорк в январе 1961-го до легендарной мотоциклетной аварии в июле 1966-го.
прихований текст
Документальный фильм, посвящённый жизни и творчеству Боба Дилана — одного из самых значительных музыкантов рок-музыки. Дилан — личность полулегендарная, в расцвет своего творчества почти не давал интервью, а после мотоциклетной аварии вообще прекратил концертные выступления на несколько лет. Тем не менее влияние на рок-музыку Дилан оказал огромное — его песни использовали в своём репертуаре многие известные музыканты, в числе которых Джимми Хендрикс, группа Кинкс, Guns'nRoses и многие другие. Под влиянием его творчества были и отечественные рокеры: Борис Гребенщиков, Майк Науменко и др.

В картине использованы редкие записи концертов музыканта и интервью с ним и его коллегами по цеху — американскими фолк-музыкантами — а также воротилами музыкального бизнеса 1950-1960-х гг. и разочарованными творческими поисками кумира поклонниками Дилана.

Режиссёр картины — лауреат каннской пальмовой ветви и премии "Оскар" — Мартин Скорсезе. По его признанию, во время работы над фильмом сознательно не встречался с героем проекта, чтобы не развеять сложившийся в своём сознании образ легенды.

Фильм состоит из (2 серий)

Страна: США, Япония, Великобритания
Продолжительность: 03:28:15
Перевод: 1: Русский: профессиональный одноголосый закадровый
2: Английский: оригинал

Файл
Кодек: XviD
Качество: DVDRip
фильм 1. 640×480 (1.33:1), 23.976 fps, XviD build 50 ~2105 kbps avg, 0.28 bit/pixel
фильм 2. 640×480 (1.33:1), 23.976 fps, XviD build 50 ~2282 kbps avg, 0.31 bit/pixel
Аудио:
#1: 48 kHz, AC3 Dolby Digital, 2/0 (L,R) ch, ~224 kbps Rus
#2: 48 kHz, 48 kHz, AC3 Dolby Digital, 2/0 (L,R) Surround Encoded ch, ~192 kbps Eng
Субтитры: английские
Формат субтитров: SRT


MediaInfo #1:

Общее
Полное имя : D:1. (No Direction Home) Bob Dylan (Martin Scorsese, 2005) DVDRip (Rus, Eng).avi
Формат : AVI
Формат/Информация : Audio Video Interleave
Профиль формата : OpenDML
Размер файла : 2,00 Гбайт
Продолжительность : 1 ч. 53 м.
Общий поток : 2528 Кбит/сек
Название фильма : 1. (No Direction Home) Bob Dylan (Martin Scorsese, 2005) DVDRip (Rus, Eng)
Режиссёр : Maksmet
Программа кодирования : VirtualDubModRus 1.5.10.2 (build 2542/release)
Формат оригинала/Имя : Documentary
Примечание : 11.10.2017

Видео
Идентификатор : 0
Формат : MPEG-4 Visual
Профиль формата : Advanced [email protected]
Параметр BVOP формата : 1
Параметр QPel формата : Нет
Параметр GMC формата : Без точки перехода
Параметр матрицы формата : Выборочная
Идентификатор кодека : XVID
Идентификатор кодека/Подсказка : XviD
Продолжительность : 1 ч. 53 м.
Битрейт : 2094 Кбит/сек
Ширина : 640 пикселей
Высота : 480 пикселей
Соотношение сторон : 4:3
Частота кадров : 23,976 (24000/1001) кадра/сек
Цветовое пространство : YUV
Субдискретизация насыщенности : 4:2:0
Битовая глубина : 8 бит
Тип развёртки : Прогрессивная
Метод сжатия : С потерями
Бит/(Пиксели*Кадры) : 0.284
Размер потока : 1,66 Гбайт (83%)
Библиотека кодирования : XviD 1.2.1 (UTC 2008-12-04)

Аудио #1
Идентификатор : 1
Формат : AC-3
Формат/Информация : Audio Coding 3
Параметр Endianness формата : Big
Идентификатор кодека : 2000
Продолжительность : 1 ч. 53 м.
Вид битрейта : Постоянный
Битрейт : 224 Кбит/сек
Каналы : 2 канала
Расположение каналов : Front: L R
Частота : 48,0 КГц
Частота кадров : 31,250 кадров/сек (1536 SPF)
Битовая глубина : 16 бит
Метод сжатия : С потерями
Размер потока : 181 Мбайт (9%)
Выравнивание : Разделение по промежуткам
Продолжительность промежутка : 42 мс. (1,00 видеокадр)
Время предзагрузки промежутка : 500 мс.
ServiceKind/String : Complete Main

Аудио #2
Идентификатор : 2
Формат : AC-3
Формат/Информация : Audio Coding 3
Режим : Dolby Digital
Параметр Endianness формата : Big
Идентификатор кодека : 2000
Продолжительность : 1 ч. 53 м.
Вид битрейта : Постоянный
Битрейт : 192 Кбит/сек
Каналы : 2 канала
Расположение каналов : Front: L R
Частота : 48,0 КГц
Частота кадров : 31,250 кадров/сек (1536 SPF)
Битовая глубина : 16 бит
Метод сжатия : С потерями
Размер потока : 155 Мбайт (8%)
Выравнивание : Разделение по промежуткам
Продолжительность промежутка : 42 мс. (1,00 видеокадр)
Время предзагрузки промежутка : 500 мс.
ServiceKind/String : Complete Main



MediaInfo #2:

Общее
Полное имя : D:2. (No Direction Home) Bob Dylan (Martin Scorsese, 2005) DVDRip (Rus, Eng).avi
Формат : AVI
Формат/Информация : Audio Video Interleave
Размер файла : 1,80 Гбайт
Продолжительность : 1 ч. 35 м.
Общий поток : 2714 Кбит/сек
Название фильма : 2. (No Direction Home) Bob Dylan (Martin Scorsese, 2005) DVDRip (Rus, Eng)
Режиссёр : Maksmet
Программа кодирования : VirtualDubModRus 1.5.10.2 (build 2542/release)
Формат оригинала/Имя : Documentary
Примечание : 11.10.2017

Видео
Идентификатор : 0
Формат : MPEG-4 Visual
Профиль формата : Advanced [email protected]
Параметр BVOP формата : 1
Параметр QPel формата : Нет
Параметр GMC формата : Без точки перехода
Параметр матрицы формата : Выборочная
Идентификатор кодека : XVID
Идентификатор кодека/Подсказка : XviD
Продолжительность : 1 ч. 35 м.
Битрейт : 2283 Кбит/сек
Ширина : 640 пикселей
Высота : 480 пикселей
Соотношение сторон : 4:3
Частота кадров : 23,976 (24000/1001) кадра/сек
Цветовое пространство : YUV
Субдискретизация насыщенности : 4:2:0
Битовая глубина : 8 бит
Тип развёртки : Прогрессивная
Метод сжатия : С потерями
Бит/(Пиксели*Кадры) : 0.310
Размер потока : 1,52 Гбайт (84%)
Библиотека кодирования : XviD 1.2.1 (UTC 2008-12-04)

Аудио #1
Идентификатор : 1
Формат : AC-3
Формат/Информация : Audio Coding 3
Параметр Endianness формата : Big
Идентификатор кодека : 2000
Продолжительность : 1 ч. 35 м.
Вид битрейта : Постоянный
Битрейт : 224 Кбит/сек
Каналы : 2 канала
Расположение каналов : Front: L R
Частота : 48,0 КГц
Частота кадров : 31,250 кадров/сек (1536 SPF)
Битовая глубина : 16 бит
Метод сжатия : С потерями
Задержка видео : 408 мс.
Размер потока : 152 Мбайт (8%)
Выравнивание : Разделение по промежуткам
Продолжительность промежутка : 42 мс. (1,00 видеокадр)
Время предзагрузки промежутка : 500 мс.
ServiceKind/String : Complete Main

Аудио #2
Идентификатор : 2
Формат : AC-3
Формат/Информация : Audio Coding 3
Режим : Dolby Digital
Параметр Endianness формата : Big
Идентификатор кодека : 2000
Продолжительность : 1 ч. 35 м.
Вид битрейта : Постоянный
Битрейт : 192 Кбит/сек
Каналы : 2 канала
Расположение каналов : Front: L R
Частота : 48,0 КГц
Частота кадров : 31,250 кадров/сек (1536 SPF)
Битовая глубина : 16 бит
Метод сжатия : С потерями
Размер потока : 131 Мбайт (7%)
Выравнивание : Разделение по промежуткам
Продолжительность промежутка : 42 мс. (1,00 видеокадр)
Время предзагрузки промежутка : 500 мс.
ServiceKind/String : Complete Main


Скриншоты

Фильм #1:


Фильм #2:

Релиз от:


Скачать No_Direction_Home_Bob_Dylan_Martin_Scorsese_200.torrent

просмотры: 7

Post Comment