Вестерн Зарубежные фильмы

Золото Маккенны / Mackenna’s Gold (1969) BDRip-AVC | D



Информация о фильме
Название: Золото Маккенны
Оригинальное название: Mackenna's Gold
Год выхода: 1969
Жанр: Вестерн, приключения
Режиссер: Джон Ли Томпсон
В ролях: Грегори Пек, Омар Шариф, Телли Савалас, Камилла Спарв, Эли Уоллаш, Тед Кэссиди, Джули Ньюмар, Раймонд Мэйсси, Берджесс Мередит, Энтони Куэйл, Ли Дж. Кобб, Эдвард Дж. Робинсон, Эдуардо Чианелли

О фильме:
Благодаря случайным обстоятельствам шериф Маккенна узнает о том, где спрятано золото древнего индейского племени. В качестве «живой карты» он становится заложником бандита Колорадо, который мечтает найти каньон «дьявольское наваждение»… К группе головорезов примыкают все новые и новые охотники за богатством, но далеко не всем суждено будет добраться до цели. Тем более вернуться живыми, ведь на пути к заветной цели их ждет неизвестность…

Страна: США
Продолжительность: 02:08:15
Перевод: Советский дубляж, Мосфильм

Файл
Качество: BDRip-AVC [BDRemux]
Формат: MKV
Видео: [email protected], 1026×436, ~2177 Kbps
Аудио: AC3, 2 ch, 256.00 kbps
Субтитры: Русские, Английские (вшитые, отключаемые)



M/I
General
Unique ID : 307144765920896623323639355036240391237 (0xE711EE2140879176962BE0A017032C45)
Complete name : F:FILMSЗолото Маккены.(1969).BDRIP-AVC.[-=DoMiNo=-].mkv
Format : Matroska
Format version : Version 4 / Version 2
File size : 2.18 GiB
Duration : 2 h 8 min
Overall bit rate : 2 436 kb/s
Movie name : Золото Маккены
Deion : Благодаря случайным обстоятельствам шериф Маккенна узнает о том, где спрятано золото древнего индейского племени. В качестве «живой карты» он становится заложником бандита Колорадо, который мечтает найти каньон «дьявольское наваждение»… К группе головорезов примыкают все новые и новые охотники за богатством, но далеко не всем суждено будет добраться до цели. Тем более вернуться живыми, ведь на пути к заветной цели их ждет неизвестность…
Writing application : XviD4PSP 7.0.414 DAILY
Writing library : Lavf57.71.100
ErrorDetectionType : Per level 1
Attachments : poster.jpg
ACTORS : Грегори Пек, Омар Шариф, Телли Савалас, Камилла Спарв, Кинен Уинн, Джули Ньюмар, Тед Кэссиди, Ли Дж. Кобб, Рэймонд Мэсси, Бёрджесс Мередит, Энтони Куэйл, Эдвард Дж. Робинсон, Илай Уоллак, Эдуардо Чианнелли, Дик Пибади, Руди Диас, Роберт Филлипс, Шелли Моррисон, Роберт Портер, Дэвид Гарфилд, Пепе Каллахан, Мадлен Тейлор Холмс, Дьюк Хобби, Виктор Джори, Роберт Ритти, Тревор Бардетт
COMPOSER : Куинси Джонс
COUNTRY : США
DATE : 1968
DIRECTOR : Дж. Ли Томпсон
ENCODING_INFO : MATROSKA,WEBM > MKV Произвольный / H264 > X264 VBR-2P 2177kbps Произвольный / AC3 > COPY Безопасное
GENRE : мелодрама, вестерн, приключения
HD_VIDEO : 1
IMDB_RATING : 6.80
ITUNEXTC : ru-movie|12+|200|
Language : und
MEDIA_TYPE : 9
ORIGINAL_ACTORS : Gregory Peck, Omar Sharif, Telly Savalas, Camilla Sparv, Keenan Wynn, Julie Newmar, Ted Cassidy, Lee J. Cobb, Raymond Massey, Burgess Meredith, Anthony Quayle, Edward G. Robinson, Eli Wallach, Eduardo Ciannelli, Dick Peabody, Rudy Diaz, Robert Phillips, Shelley Morrison, Robert Porter (в титрах: J. Robert Porter), David Garfield (в титрах: John Garfield Jr.), Pepe Callahan (в титрах: Pépe Callahan), Madeleine Taylor Holmes, Duke Hobbie, Victor Jory, Robert Rietty, Trevor Bardette
ORIGINAL_TITLE : Mackenna's Gold
PRODUCER : Карл Форман, Дмитрий Тёмкин
RATING : 7.766
WRITER : Карл Форман, Хек Аллен

Video
ID : 1
Format : AVC
Format/Info : Advanced Video Codec
Format profile : [email protected]
Format settings : CABAC / 11 Ref Frames
Format settings, CABAC : Yes
Format settings, RefFrames : 11 frames
Codec ID : V_MPEG4/ISO/AVC
Duration : 2 h 8 min
Bit rate : 2 177 kb/s
Width : 1 026 pixels
Height : 436 pixels
Display aspect ratio : 2.35:1
Frame rate mode : Constant
Frame rate : 23.976 (24000/1001) FPS
Color space : YUV
Chroma subsampling : 4:2:0
Bit depth : 8 bits
Scan type : Progressive
Bits/(Pixel*Frame) : 0.203
Stream size : 1.91 GiB (88%)
Title : RIP_BY_-=DoMiNo=-
Writing library : x264 core 152 r2851M ba24899
Encoding settings : cabac=1 / ref=11 / deblock=1:-3:-3 / analyse=0x3:0x133 / me=umh / subme=11 / psy=1 / psy_rd=1.05:0.15 / mixed_ref=1 / me_range=64 / chroma_me=1 / trellis=2 / 8x8dct=1 / cqm=0 / deadzone=21,11 / fast_pskip=1 / chroma_qp_offset=-3 / threads=6 / lookahead_threads=1 / sliced_threads=0 / nr=0 / decimate=1 / interlaced=0 / bluray_compat=0 / constrained_intra=0 / bframes=12 / b_pyramid=2 / b_adapt=2 / b_bias=0 / direct=3 / weightb=1 / open_gop=0 / weightp=2 / keyint=230 / keyint_min=23 / scenecut=40 / intra_refresh=0 / rc_lookahead=60 / rc=2pass / mbtree=1 / bitrate=2177 / ratetol=1.0 / qcomp=0.70 / qpmin=0 / qpmax=69 / qpstep=4 / cplxblur=20.0 / qblur=0.5 / ip_ratio=1.40 / aq=1:1.00
Default : Yes
Forced : No
Color range : Limited
Color primaries : BT.709
Transfer characteristics : BT.709
Matrix coefficients : BT.709

Audio
ID : 2
Format : AC-3
Format/Info : Audio Coding 3
Format settings, Endianness : Big
Codec ID : A_AC3
Duration : 2 h 8 min
Bit rate mode : Constant
Bit rate : 256 kb/s
Channel(s) : 2 channels
Channel positions : Front: L R
Sampling rate : 48.0 kHz
Frame rate : 31.250 FPS (1536 SPF)
Bit depth : 16 bits
Compression mode : Lossy
Stream size : 235 MiB (10%)
Title : Дубляж
Language : Russian
Service kind : Complete Main
Default : Yes
Forced : No

Text #1
ID : 3
Format : UTF-8
Codec ID : S_TEXT/UTF8
Codec ID/Info : UTF-8 Plain Text
Duration : 2 h 6 min
Language : Russian
Default : Yes
Forced : No

Text #2
ID : 4
Format : UTF-8
Codec ID : S_TEXT/UTF8
Codec ID/Info : UTF-8 Plain Text
Duration : 2 h 8 min
Language : English
Default : No
Forced : No
Скриншоты




Скачать Zoloto_Makkeny.1969.BDRIP-AVC.-DoMiNo-.mkv.torrent

просмотры: 2

Post Comment