Биография Зарубежные фильмы

Крик 3 / Scream 3 (2000) BDRip 1080p от Freeisland

Крик 3

Scream 3

«The final Scream is going to be the loudest!»




Год выпуска: 2000
Страна: США
Жанр: ужасы, триллер, детективслова
Продолжительность: 01:56:35
Перевод: Профессиональный (дублированный)
Субтитры: Russian (UTF-8), Ukrainian (UTF-8), English (UTF-8)

Режиссер: Уэс Крэйвен
Сценарий: Эрен Крюгер, Кевин Уильямсон
Продюсер: Кэти Конрад, Марианн Маддалена, Кевин Уильямсон, …
Оператор: Питер Диминг
Композитор: Марко Белтрами
Художник: Брюс Алан Миллер, Томас Фиктер, Эбигейл Мюррэй, …
Монтаж: Патрик Люссье

В ролях: Нив Кэмпбелл / Neve Campbell (Sidney Prescott, $ 4 000 000 ), Кортни Кокс / Courteney Cox (Gale Weathers, $ 7 000 000 ), Дэвид Аркетт / David Arquette (Dwight «Dewey» Riley), Патрик Демпси / Patrick Dempsey (Detective Mark Kincaid), Лив Шрайбер / Liev Schreiber (Cotton Weary), Скотт Фоули / Scott Foley (Roman Bridger), Лэнс Хенриксен / Lance Henriksen (John Milton), Эмили Мортимер / Emily Mortimer (Angelina Tyler)

Описание: Как и должно было случиться, ужасные происшествия в Вудсборо стали идеальным материалом для Голливуда: там снималась уже третья серия фильма «Удар ножом». Тем временем Сидни ведет уединенный образ жизни в Северной Калифорнии, где и узнает о новых чудовищных убийствах. Прошлое вновь назначает ей смертельную встречу, и на этот раз круг должен замкнуться…

Бюджет: $40 000 000
Сборы в США: $89 143 175
Сборы в мире: + $72 691 101 = $161 834 276
Зрители: США 16.2 млн , Германия 1.8 млн , Испания 1.41 млн
Премьера (мир): 3 февраля 2000, …
Премьера (РФ): 25 апреля 2000
Релиз на DVD: 9 декабря 2008, «West Video», …
Рейтинг MPAA: Лицам до 17 лет обязательно присутствие взрослого


Качество: BDRip.1080р
Формат: MKV
Видео кодек: AVC
Аудио кодеk: AC3
Видео: 1920×814 (2.35:1), 23.976 fps, AVC, 8 355 Kbps

Аудио #1: AC3, 384 Kbps, 48.0 KHz, 6 ch (Дубляж)
Аудио #2: AC3, 384 Kbps, 48.0 KHz, 6 ch (AVO — Иванов)
Аудио #3: AC3, 256 Kbps, 48.0 KHz, 2 ch Ukr. (DVO — канал Новий)
Аудио #4: AC3, 384 Kbps, 48.0 KHz, 6 ch (English)



МедиаИнфо
Лог:
-x264 [info]: frame I:1217 Avg QP:19.01 size:170564
-x264 [info]: frame P:34672 Avg QP:21.02 size: 65685
-x264 [info]: frame B:131843 Avg QP:23.37 size: 36471

General
Complete name : Krik.III.2000.BDRip.1080p.mkv
Format : Matroska
File size : 7.94 GiB
Duration : 1h 56mn
Overall bit rate : 9 751 Kbps
Encoded date : UTC 2013-05-20 07:54:37
Writing application : mkvmerge v6.1.0 ('Old Devil') built on Mar 2 2013 14:32:37
Writing library : libebml v1.3.0 + libmatroska v1.4.0

Video
ID : 1
Format : AVC
Format/Info : Advanced Video Codec
Format profile : [email protected]
Format settings, CABAC : Yes
Format settings, ReFrames : 4 frames
Muxing mode : Container [email protected]
Codec ID : V_MPEG4/ISO/AVC
Duration : 1h 56mn
Bit rate : 8 355 Kbps
Width : 1 920 pixels
Height : 814 pixels
Display aspect ratio : 2.35:1
Frame rate : 23.976 fps
Color space : YUV
Chroma subsampling : 4:2:0
Bit depth : 8 bits
Scan type : Progressive
Bits/(Pixel*Frame) : 0.223
Stream size : 6.64 GiB (84%)
Writing library : x264 core 132 r2310 76a5c3a
Encoding settings : cabac=1 / ref=4 / deblock=1:-1:-1 / analyse=0x3:0x133 / me=umh / subme=10 / psy=1 / psy_rd=1.00:0.00 / mixed_ref=1 / me_range=32 / chroma_me=1 / trellis=2 / 8x8dct=1 / cqm=0 / deadzone=21,11 / fast_pskip=0 / chroma_qp_offset=-2 / threads=6 / lookahead_threads=1 / sliced_threads=0 / nr=0 / decimate=1 / interlaced=0 / bluray_compat=0 / constrained_intra=0 / bframes=8 / b_pyramid=2 / b_adapt=2 / b_bias=0 / direct=3 / weightb=1 / open_gop=0 / weightp=2 / keyint=240 / keyint_min=24 / scenecut=40 / intra_refresh=0 / rc_lookahead=50 / rc=2pass / mbtree=0 / bitrate=8355 / ratetol=2.0 / qcomp=1.00 / qpmin=0 / qpmax=51 / qpstep=4 / cplxblur=20.0 / qblur=0.5 / vbv_maxrate=38000 / vbv_bufsize=30000 / nal_hrd=none / ip_ratio=1.40 / pb_ratio=1.30 / aq=1:1.00
Color primaries : BT.709-5, BT.1361, IEC 61966-2-4, SMPTE RP177
Transfer characteristics : BT.709-5, BT.1361
Matrix coefficients : BT.709-5, BT.1361, IEC 61966-2-4 709, SMPTE RP177

Audio #1
ID : 2
Format : AC-3
Format/Info : Audio Coding 3
Mode extension : CM (complete main)
Codec ID : A_AC3
Duration : 1h 56mn
Bit rate mode : Constant
Bit rate : 384 Kbps
Channel(s) : 6 channels
Channel positions : Front: L C R, Side: L R, LFE
Sampling rate : 48.0 KHz
Bit depth : 16 bits
Stream size : 320 MiB (4%)
Title : Дубляж
Language : Russian

Audio #2
ID : 3
Format : AC-3
Format/Info : Audio Coding 3
Mode extension : CM (complete main)
Codec ID : A_AC3
Duration : 1h 56mn
Bit rate mode : Constant
Bit rate : 384 Kbps
Channel(s) : 6 channels
Channel positions : Front: L C R, Side: L R, LFE
Sampling rate : 48.0 KHz
Bit depth : 16 bits
Stream size : 320 MiB (4%)
Title : AVO — Иванов
Language : Russian

Audio #3
ID : 4
Format : AC-3
Format/Info : Audio Coding 3
Mode extension : CM (complete main)
Codec ID : A_AC3
Duration : 1h 56mn
Bit rate mode : Constant
Bit rate : 256 Kbps
Channel(s) : 2 channels
Channel positions : Front: L R
Sampling rate : 48.0 KHz
Bit depth : 16 bits
Stream size : 213 MiB (3%)
Title : DVO — канал Новий
Language : Ukrainian

Audio #4
ID : 5
Format : AC-3
Format/Info : Audio Coding 3
Mode extension : CM (complete main)
Codec ID : A_AC3
Duration : 1h 56mn
Bit rate mode : Constant
Bit rate : 384 Kbps
Channel(s) : 6 channels
Channel positions : Front: L C R, Side: L R, LFE
Sampling rate : 48.0 KHz
Bit depth : 16 bits
Stream size : 320 MiB (4%)

Text #1
ID : 6
Format : UTF-8
Codec ID : S_TEXT/UTF8
Codec ID/Info : UTF-8 Plain Text
Language : Russian

Text #2
ID : 7
Format : UTF-8
Codec ID : S_TEXT/UTF8
Codec ID/Info : UTF-8 Plain Text
Language : Ukrainian

Text #3
ID : 8
Format : UTF-8
Codec ID : S_TEXT/UTF8
Codec ID/Info : UTF-8 Plain Text

Menu
00:00:00.000 : en:00:00:00.000
00:09:27.733 : en:00:09:27.733
00:15:39.104 : en:00:15:39.104
00:22:35.520 : en:00:22:35.520
00:30:35.166 : en:00:30:35.166
00:37:28.412 : en:00:37:28.412
00:45:48.287 : en:00:45:48.287
00:52:14.339 : en:00:52:14.339
00:59:47.417 : en:00:59:47.417
01:11:59.440 : en:01:11:59.440
01:18:50.183 : en:01:18:50.183
01:25:01.763 : en:01:25:01.763
01:30:51.612 : en:01:30:51.612
01:35:34.520 : en:01:35:34.520
01:42:21.218 : en:01:42:21.218
01:47:22.978 : en:01:47:22.978

Знаете ли Вы, что…
★ Дом, который использовался для съёмок финальной сцены, где происходит большинство убийств в фильме, также использовался для съёмок школы в картине «Хэллоуин: 20 лет спустя» (1998).

★ На стуле оператора на съёмках «Удара ножом 3», фильма в фильме в «Крике 3», написано имя оператора «Крика 3» Питера Деминга.

★ В течение всего фильма актеры и актрисы не раз говорят о постоянном переписывании сценария и трех разных концовках для «Удара ножом 3». Сценарий «Крика 3» также не раз переписывался, и сценарист фильма придумал три разные концовки.

★ В США фильм установил рекорд по количеству кинотеатров в премьерный уикэнд — 3467. В 2001 году данный рекорд был побит фильмом «Гарри Поттер и философский камень» (3762 кинотеатра).

★ Джея и Молчаливого Боба, популярных персонажей из фильмов Кевина Смита, можно заметить в качестве туристов на Sunrise Studios. Увидев Гэйл Вэдерс, они ошибочно принимают её за Конни Чанг.

★ Режиссера фильма, Уэса Крэйвена, можно заметить в сцене с Джеем и Молчаливым Бобом. Он находится позади них.

★ Песня «Red Right Hand» использована во всех трех фильмах.

★ Во время своего видеопослания Рэнди не раз говорит о трилогии «Звездные войны». Кэрри Фишер, которая сыграла принцессу Лейю в трилогии «Звездные войны», исполнила роль-камео в «Крике 3»: она сыграла Бианку, хранителя студийного архива.

★ Ванная комната, в которой Сидни находит Анджелину на съёмках «Удара ножом 3», — та же самая ванная комната, использованная для сцены, в которой Сидни убегает от маньяка в «Крике».

★ Нив Кэмбелл заключила специальное соглашение, согласно которому все сцены с её участием должны были быть сняты в течение 20 дней. Данный факт объясняет, почему она не является настолько ярко выраженным главным персонажем, как в предыдущих в двух фильмах.

★ Незадолго до начала съёмок фильма Кортни Кокс и Дэвид Аркетт поженились.

★ Кэйт Уинслет, Шэннен Доэрти и Каризма Карпентер рассматривались на роль Кристи. В итоге эта роль досталась Келли Рудерфорд.

★ Такой же зеленый костюм, в который одета Паркер Поси, носила Кортни Кокс в первом фильме.

★ Все декорации для «Удара ножом 3» являются копией декораций к «Крику», так как все декорации «Крика» были уничтожены после завершения съёмок.

★ Человека, отвечающего за спецэффекты на съёмках «Удара ножом 3», зовут Стэн. Это — возможный намёк на легендарного создателя спецэффектов Стэна Уинстона.

★ Правила заключительной картины в трилогии фильмов ужасов: 1) Убийца обладает сверхчеловеческими способностями. Его нельзя будет просто заколоть или застрелить. 2) Каждый, включая главную героиню, может погибнуть. 3) В фильме будет неожиданный поворот сюжета, рассказывающий о прошлом главного персонажа.

★ В сравнении со своими предшественниками в третьем фильме было пролито меньше всего крови — 10 галлонов. В первом фильме — 50 галлонов, во втором — 30.

★ Количество трупов: 10.

★ Уэс Крэйвен согласился в третий раз занять режиссерское кресло, если только на студии Miramax дадут зеленый свет «Музыке сердца» (1999).

★ Студия тщательно охраняла сюжет фильма, поэтому на съёмочную площадку не допускали журналистов. Первый показ картины для журналистов был организован всего лишь за два дня до премьеры фильма.

★ Уэс Крэйвен снял три разные концовки и не сказал актерам, какую из них он намеревается включить в окончательный монтаж фильма.

★ Первоначальный вебсайт фильма был полностью посвящен Sunrise Studios, вымышленной студии, на которой происходят съёмки «Удара ножом 3». Также на сайте можно было найти фильмотографии и биографии актеров, снимавшихся в «Ударе ножом 3», и список будущих проектов студии.

★ Студия специально не устраивала тест-просмотров, боясь разглашения сюжета и многочисленных спойлеров. Актеры и съёмочная группа впервые увидели готовую версию картины лишь на премьере.

★ Дом, в которой происходит большая часть второй половины фильма, принадлежит Рендалу Клейзеру, режиссеру «Бриолина» (1978).

★ Эрену Крюгеру пришлось в срочном порядке переписывать сценарий уже после начала съёмок.

★ Патрик Демпси был утвержден на роль за один день до начала съёмок.

★ Нив Кэмпбелл одновременно снималась в «Крике 3», «Утопим Мону» (2000) и «Нас пятеро». Так как у её героини в «Утопим Мону» были длинные волосы, то ей приходилось носить специальный парик для роли Сидни.

★ Создатели хотели вернуть персонаж Джэми Кеннеди, Рэнди: предполагалось, что он выжил после событий во втором фильме. Но, в конце концов, идею признали притянутой за уши. Однако Рэнди всё-таки вернулся и передал привет с того света при помощи современных технологий.

★ Кэрри Фишер была недовольна репликами своей героини, поэтому она попросила сценариста переписать её диалоги и сама активно помогала ему в этом процессе.

★ На протяжении всего фильма Сидни носит на шее греческие буквы, которые ей подарил Дерек (её бойфренд в «Крике 2» (1997)).

Скриншоты

Релиз группы:


Скачать Krik.III.2000.BDRip.1080p.mkv.torrent

просмотры: 7

Post Comment