Зарубежные фильмы Криминал

Громовое сердце / Thunderheart (1992) WEB-DL 720p | P, A


Информация о фильме
✧ Название: Громовое сердце
✧ Оригинальное название: Thunderheart
✧ Год выхода: 1992
Жанр: боевик, триллер, криминал, детектив
✧ Выпущено: США
✧ Продолжительность: 01:59:19
✧ Перевод: Профессиональный многоголосый, авторский одноголосый
✧ Режиссер: Майкл Эптед / Michael Apted
✧ В ролях: Вэл Килмер, Сэм Шепард, Грэм Грин, Фред Уорд, Фред Долтон Томпсон, Шила Таузи, Тед Тин Элк, Джон Труделл, Джулиус Драм, Сара Брейв


О фильме
Агента ФБР Рэя, в чьих жилах течет индейская кровь, отправляют в резервацию расследовать убийство, в котором подозревается борец за права этого немногочисленного народа. Там он знакомится с местным шерифом и вождем племени. По мере того, как Рэй приближается к цели, он все меньше уверен в виновности подозреваемого. В конце концов, агент понимает, что правительство США пытается его руками устранить неугодного человека. И в этот момент в нем просыпается Индеец, чье сердце не терпит несправедливости и лжи.


Файл
✧ Качество: WEB-DL 720p
✧ Видео: MPEG-4 AVC, 1280×718, 23.976 fps, 3971 Kbps, 0.180 bpp
✧ Аудио 1: Russian: AC3 / 2.0 / 48 kHz / 192 kbps — MVO
✧ Аудио 2: Russian: AC3 / 2.0 / 48 kHz / 192 kbps — MVO, РенТВ
✧ Аудио 3: Russian: AC3 / 2.0 / 48 kHz / 192 kbps — MVO, СТС
✧ Аудио 4: Russian: AC3 / 2.0 / 48 kHz / 192 kbps — AVO, Ю. Живов
✧ Аудио 5: English: AC3 / 2.0 / 48 kHz / 256 kbps — Оригинал
✧ Субтитры: Русские, английские
✧ Навигация по главам: есть

Примечание
• В дорожках РенТВ и СТС есть небольшие пропуски — там вставлен перевод с первой дорожки
Скриншоты


MediaInfo
Общее
Уникальный идентификатор : 193737506570660669566840988998724222218 (0x91C07C8CEFFF5112A5B8FA70E42FFD0A)
Полное имя : Thunderheart.1992.WEB-DL.720p.mkv
Формат : Matroska
Версия формата : Version 4 / Version 2
Размер файла : 4,25 Гбайт
Продолжительность : 1 ч. 59 м.
Общий поток : 5096 Кбит/сек
Название фильма : Громовое сердце / Thunderheart (1992)
Дата кодирования : UTC 2013-09-24 11:54:06
Программа кодирования : mkvmerge v6.2.0 ('Promised Land') built on Apr 28 2013 12:22:01
Библиотека кодирования : libebml v1.3.0 + libmatroska v1.4.0

Видео
Идентификатор : 1
Формат : AVC
Формат/Информация : Advanced Video Codec
Профиль формата : [email protected]
Параметр CABAC формата : Нет
Параметр RefFrames формата : 2 кадра
Идентификатор кодека : V_MPEG4/ISO/AVC
Продолжительность : 1 ч. 59 м.
Битрейт : 3971 Кбит/сек
Ширина : 1280 пикселей
Высота : 718 пикселей
Соотношение сторон : 16:9
Режим частоты кадров : Постоянный
Частота кадров : 23,976 кадра/сек
Цветовое пространство : YUV
Субдискретизация насыщенности : 4:2:0
Битовая глубина : 8 бит
Тип развёртки : Прогрессивная
Бит/(Пиксели*Кадры) : 0.180
Размер потока : 3,31 Гбайт (78%)
Заголовок : Thunderheart.1992.WEB-DL.720p
Язык : English
Default : Да
Forced : Нет
Цветовой диапазон : Limited
Основные цвета : BT.709
Характеристики трансфера : BT.709
Коэффициенты матрицы : BT.709

Аудио #1
Идентификатор : 2
Формат : AC-3
Формат/Информация : Audio Coding 3
Параметр Endianness формата : Big
Идентификатор кодека : A_AC3
Продолжительность : 1 ч. 59 м.
Вид битрейта : Постоянный
Битрейт : 192 Кбит/сек
Каналы : 2 канала
Расположение каналов : Front: L R
Частота : 48,0 КГц
Частота кадров : 31,250 кадров/сек (1536 SPF)
Битовая глубина : 16 бит
Метод сжатия : С потерями
Размер потока : 164 Мбайт (4%)
Заголовок : MVO
Язык : Russian
Default : Да
Forced : Нет

Аудио #2
Идентификатор : 3
Формат : AC-3
Формат/Информация : Audio Coding 3
Параметр Endianness формата : Big
Идентификатор кодека : A_AC3
Продолжительность : 1 ч. 59 м.
Вид битрейта : Постоянный
Битрейт : 192 Кбит/сек
Каналы : 2 канала
Расположение каналов : Front: L R
Частота : 48,0 КГц
Частота кадров : 31,250 кадров/сек (1536 SPF)
Битовая глубина : 16 бит
Метод сжатия : С потерями
Размер потока : 164 Мбайт (4%)
Заголовок : MVO (RENTV)
Язык : Russian
Default : Нет
Forced : Нет

Аудио #3
Идентификатор : 4
Формат : AC-3
Формат/Информация : Audio Coding 3
Параметр Endianness формата : Big
Идентификатор кодека : A_AC3
Продолжительность : 1 ч. 59 м.
Вид битрейта : Постоянный
Битрейт : 192 Кбит/сек
Каналы : 2 канала
Расположение каналов : Front: L R
Частота : 48,0 КГц
Частота кадров : 31,250 кадров/сек (1536 SPF)
Битовая глубина : 16 бит
Метод сжатия : С потерями
Размер потока : 164 Мбайт (4%)
Заголовок : MVO (STS)
Язык : Russian
Default : Нет
Forced : Нет

Аудио #4
Идентификатор : 5
Формат : AC-3
Формат/Информация : Audio Coding 3
Параметр Endianness формата : Big
Идентификатор кодека : A_AC3
Продолжительность : 1 ч. 59 м.
Вид битрейта : Постоянный
Битрейт : 192 Кбит/сек
Каналы : 2 канала
Расположение каналов : Front: L R
Частота : 48,0 КГц
Частота кадров : 31,250 кадров/сек (1536 SPF)
Битовая глубина : 16 бит
Метод сжатия : С потерями
Размер потока : 164 Мбайт (4%)
Заголовок : AVO (Jivov)
Язык : Russian
Default : Нет
Forced : Нет

Аудио #5
Идентификатор : 6
Формат : AC-3
Формат/Информация : Audio Coding 3
Параметр Endianness формата : Big
Идентификатор кодека : A_AC3
Продолжительность : 1 ч. 59 м.
Вид битрейта : Постоянный
Битрейт : 256 Кбит/сек
Каналы : 2 канала
Расположение каналов : Front: L R
Частота : 48,0 КГц
Частота кадров : 31,250 кадров/сек (1536 SPF)
Битовая глубина : 16 бит
Метод сжатия : С потерями
Размер потока : 218 Мбайт (5%)
Заголовок : Original
Язык : English
Default : Нет
Forced : Нет

Текст #1
Идентификатор : 7
Формат : UTF-8
Идентификатор кодека : S_TEXT/UTF8
Идентификатор кодека/Информация : UTF-8 Plain Text
Язык : Russian
Default : Нет
Forced : Нет

Текст #2
Идентификатор : 8
Формат : UTF-8
Идентификатор кодека : S_TEXT/UTF8
Идентификатор кодека/Информация : UTF-8 Plain Text
Язык : English
Default : Нет
Forced : Нет

Меню
00:00:00.000 : en:1
00:06:58.000 : en:2
00:13:31.000 : en:3
00:24:27.000 : en:4
00:34:50.000 : en:5
00:37:15.000 : en:6
00:43:33.000 : en:7
00:51:50.000 : en:8
00:55:47.000 : en:9
01:04:06.000 : en:10
01:13:27.000 : en:11
01:22:12.000 : en:12
01:30:21.000 : en:13
01:36:09.000 : en:14
01:42:10.000 : en:15
01:46:11.000 : en:16


Скачать Thunderheart.1992.WEB-DL.720p.mkv.torrent

просмотры: 0

Post Comment