Детектив Зарубежные фильмы

Франклин / Franklyn (2008) BDRemux 1080p | P, P2

Информация о фильме
✧ Название: Франклин
✧ Оригинальное название: Franklyn
✧ Год выхода: 2008
Жанр: фантастика, фэнтези, триллер, драма
✧ Страна: Франция, Великобритания
✧ Студия: Aramid Entertainment Fund, Film4, Recorded Picture Company (RPC), UK Film Council
✧ Продолжительность: 01:37:57
✧ Перевод: Профессиональный многоголосый, профессиональный двухголосый
✧ Режиссер: Джеральд МакМорроу / Gerald McMorrow
✧ В ролях: Ева Грин, Райан Филипп, Сэм Райли, Бернард Хилл, Джеймс Фолкнер, Стивен Уолтерс, Арт Малик, Сюзанна Йорк, Ричард Койл, Кика Маркам

✧ О фильме:
В основе сюжета положены судьбы четырёх главных героев. Эссер — старый сломленный жизнью человек, скитающийся по переполненным бездомными и нищими улицам города в поисках своего пропавшего сына. Майло — тридцатилетний мужчина, отчаянно пытающийся вернуть себе чистоту первой любви. Эмилия — прекрасная студентка факультета искусств, чьи работы наполнены суицидальными мыслями и смертью. Прист — безжалостный детектив, ищущий возмездия на улицах метрополиса под названием Meanwhile City, гигантского монолита, управляемого религиозными фанатиками. Эти четверо людей — радикально разные, но в результате их миры столкнутся друг с другом и в стремительном финале полёт одной-единственной пули разрешит судьбу героев.

MPAA: R — Лицам до 17 лет обязательно присутствие взрослого

Файл
✧ Качество: BDRemux 1080p
✧ Контейнер: MKV
✧ Видео: MPEG-4 AVC, 1920х1080 (16:9), 17921 kbps, 24.000 fps, High Profile 4.1
✧ Аудио 1: Russian: 48 kHz, AC3, 5.1 ch, 384 kbps — MVO, R5
✧ Аудио 2: Russian: 48 kHz, AC3, 5.1 ch, 384 kbps — DVO
✧ Аудио 3: Ukrainian: 48 kHz, AC3, 2.0 ch, 192 kbps — MVO, НЛО-TV
✧ Аудио 4: English: 48 kHz, DTS-HD Ma, 5.1 ch, 2416 kbps (DTS Core: 5.1 / 48 kHz / 1509 kbps / 16-bit) — Оригинал
✧ Субтитры: Русские, английские
✧ Навигация по главам: есть

Знаете ли вы, что…
• Съёмки фильма стартовали в Лондоне в сентябре 2007 года.
• Первоначально роли Майло, Приста и Эссера должны были играть Эван Макгрегор, Пол Беттани и Джон Хёрт соответственно. Однако незадолго до начала съёмок создатели ленты решили, что герои должны быть несколько моложе, и был избран новый состав. Ева Грин, участвовавшая в проекте с самого начала, осталась в роли Эмилии.
Скриншоты



MediaInfo
Общее
Уникальный идентификатор : 216707129756614861581142480225035077014 (0xA3084668C32D21E194B90430ACCFC596)
Полное имя : Franklyn.2008.BDRemux.1080p.mkv
Формат : Matroska
Версия формата : Version 2
Размер файла : 14,6 Гбайт
Продолжительность : 1 ч. 37 м.
Режим общего битрейта : Переменный
Общий поток : 21,3 Мбит/сек
Название фильма : Franklyn.2008.BDRemux.1080p
Дата кодирования : UTC 2017-11-24 11:34:25
Программа кодирования : mkvmerge v5.8.0 ('No Sleep / Pillow') built on Sep 2 2012 15:37:04
Библиотека кодирования : libebml v1.2.3 + libmatroska v1.3.0

Видео
Идентификатор : 1
Формат : AVC
Формат/Информация : Advanced Video Codec
Профиль формата : [email protected]
Параметр CABAC формата : Да
Параметр RefFrames формата : 4 кадра
Идентификатор кодека : V_MPEG4/ISO/AVC
Продолжительность : 1 ч. 37 м.
Вид битрейта : Переменный
Максимальный битрейт : 30,0 Мбит/сек
Ширина : 1920 пикселей
Высота : 1080 пикселей
Соотношение сторон : 16:9
Режим частоты кадров : Постоянный
Частота кадров : 24,000 кадра/сек
Стандарт вещания : NTSC
Цветовое пространство : YUV
Субдискретизация насыщенности : 4:2:0
Битовая глубина : 8 бит
Тип развёртки : Прогрессивная
Заголовок : Франклин / Franklyn (2008)
Язык : English
Default : Да
Forced : Нет
Цветовой диапазон : Limited
Основные цвета : BT.709
Характеристики трансфера : BT.709
Коэффициенты матрицы : BT.709

Аудио #1
Идентификатор : 2
Формат : AC-3
Формат/Информация : Audio Coding 3
Параметр Endianness формата : Big
Идентификатор кодека : A_AC3
Продолжительность : 1 ч. 37 м.
Вид битрейта : Постоянный
Битрейт : 384 Кбит/сек
Каналы : 6 каналов
Расположение каналов : Front: L C R, Side: L R, LFE
Частота : 48,0 КГц
Частота кадров : 31,250 кадров/сек (1536 SPF)
Битовая глубина : 16 бит
Метод сжатия : С потерями
Размер потока : 269 Мбайт (2%)
Заголовок : MVO, R5
Язык : Russian
Default : Да
Forced : Нет

Аудио #2
Идентификатор : 3
Формат : AC-3
Формат/Информация : Audio Coding 3
Параметр Endianness формата : Big
Идентификатор кодека : A_AC3
Продолжительность : 1 ч. 37 м.
Вид битрейта : Постоянный
Битрейт : 384 Кбит/сек
Каналы : 6 каналов
Расположение каналов : Front: L C R, Side: L R, LFE
Частота : 48,0 КГц
Частота кадров : 31,250 кадров/сек (1536 SPF)
Битовая глубина : 16 бит
Метод сжатия : С потерями
Размер потока : 269 Мбайт (2%)
Заголовок : DVO
Язык : Russian
Default : Нет
Forced : Нет

Аудио #3
Идентификатор : 4
Формат : AC-3
Формат/Информация : Audio Coding 3
Параметр Endianness формата : Big
Идентификатор кодека : A_AC3
Продолжительность : 1 ч. 37 м.
Вид битрейта : Постоянный
Битрейт : 192 Кбит/сек
Каналы : 2 канала
Расположение каналов : Front: L R
Частота : 48,0 КГц
Частота кадров : 31,250 кадров/сек (1536 SPF)
Битовая глубина : 16 бит
Метод сжатия : С потерями
Размер потока : 135 Мбайт (1%)
Заголовок : MVO, NLO-TV
Язык : Ukrainian
Default : Нет
Forced : Нет

Аудио #4
Идентификатор : 5
Формат : DTS
Формат/Информация : Digital Theater Systems
Профиль формата : MA / Core
Режим : 16
Параметр Endianness формата : Big
Идентификатор кодека : A_DTS
Продолжительность : 1 ч. 37 м.
Вид битрейта : Переменный / Постоянный
Битрейт : Неизвестно / 1509 Кбит/сек
Каналы : 6 каналов
Расположение каналов : Front: L C R, Side: L R, LFE
Частота : 48,0 КГц
Частота кадров : 93,750 кадра/сек (512 SPF)
Битовая глубина : 16 бит
Метод сжатия : Без потерь / Lossy
Заголовок : Original
Язык : English
Default : Нет
Forced : Нет

Текст #1
Идентификатор : 6
Формат : UTF-8
Идентификатор кодека : S_TEXT/UTF8
Идентификатор кодека/Информация : UTF-8 Plain Text
Язык : Russian
Default : Нет
Forced : Нет

Текст #2
Идентификатор : 7
Формат : UTF-8
Идентификатор кодека : S_TEXT/UTF8
Идентификатор кодека/Информация : UTF-8 Plain Text
Язык : English
Default : Нет
Forced : Нет

Меню
00:00:00.000 : en:00:00:00.000
00:06:47.667 : en:00:06:47.667
00:12:42.208 : en:00:12:42.208
00:26:12.000 : en:00:26:12.000
00:32:44.792 : en:00:32:44.792
00:43:03.750 : en:00:43:03.750
00:51:04.083 : en:00:51:04.083
00:57:59.167 : en:00:57:59.167
01:07:00.458 : en:01:07:00.458
01:14:37.333 : en:01:14:37.333
01:19:20.833 : en:01:19:20.833
01:28:36.833 : en:01:28:36.833


Скачать Franklyn.2008.BDRemux.1080p.mkv.torrent

просмотры: 2

Post Comment