Боевик Зарубежные фильмы

Последний из лучших / Yat ku chan dik mou lam (2014) BDRip 1080p | L1

Информация о фильме
Название: Последний из лучших
Оригинальное название: Yat ku chan dik mou lam
Год выхода: 2014
Жанр: боевик, драма
Режиссер: Тедди Чан
В ролях: Донни Ен, Чарли Енг, Ван Баоцян, Бин Бай, Дип Нг, Алекс Фонг, Юй Кан, Фан Сю-Вонг, Юй Син, Билли Чан

Описание: Бывший полицейский инструктор по боевым искусствам заключен в тюрьму после того, как случайно убил человека. Когда объявляется серийный убийца специализирующийся на мастерах боевых искусств, он предлагает помощь полиции в обмен на свою свободу.

Страна: Китай, Гонконг
Продолжительность: 01:40:02
Перевод: Любительский (одноголосый закадровый) zamez
Субтитры: английские, китайские, русские (mihalev)
Оригинальная аудиодорожка: китайский

Файл
Качество: BDRip 1080p
Видео: AVC (x264), 1920×816 (2.35:1) at 24,000 fps, 14800 Кbps, 0.393 bpp
Аудио 1: DTS; 1536 Kbps; CBR; 6 ch; 48 khz | VO — zamez
Аудио 2: DTS; 1536 Kbps; CBR; 6 ch; 48 khz | Китайский

Скриншоты

MediaInfo
General
Unique ID : 175088755647740561971679596016094366101 (0x83B8DE2463856C01B3785D111AFF4995)
Complete name : Последний из лучших.2014.L1.1080p.BluRay.x264-TayTO.mkv
Format : Matroska
Format version : Version 4 / Version 2
File size : 12.7 GiB
Duration : 1h 40mn
Overall bit rate : 18.2 Mbps
Movie name : Kung Fu Jungle [2014] [1080p] VO
Encoded date : UTC 2015-01-21 13:36:40
Writing application : mkvmerge v7.5.0 ('Glass Culture') 32bit built on Jan 4 2015 16:37:25
Writing library : libebml v1.3.1 + libmatroska v1.4.2

Video
ID : 1
Format : AVC
Format/Info : Advanced Video Codec
Format profile : [email protected]
Format settings, CABAC : Yes
Format settings, ReFrames : 5 frames
Codec ID : V_MPEG4/ISO/AVC
Duration : 1h 40mn
Bit rate : 14.8 Mbps
Width : 1 920 pixels
Height : 816 pixels
Display aspect ratio : 2.35:1
Frame rate mode : Constant
Frame rate : 24.000 fps
Color space : YUV
Chroma subsampling : 4:2:0
Bit depth : 8 bits
Scan type : Progressive
Bits/(Pixel*Frame) : 0.393
Stream size : 10.3 GiB (81%)
Title : profile.php?mode=viewprofile&u=22488948 || RG Orient Extreme Films
Writing library : x264 core 142 r2431+42 c69a006 tMod [[email protected] X86_64]
Encoding settings : cabac=1 / ref=5 / deblock=1:-3:-3 / analyse=0x3:0x133 / me=umh / subme=11 / psy=1 / fade_compensate=0.00 / psy_rd=1.05:0.00 / mixed_ref=1 / me_range=48 / chroma_me=1 / trellis=2 / 8x8dct=1 / cqm=0 / deadzone=21,11 / fast_pskip=0 / chroma_qp_offset=-2 / threads=12 / lookahead_threads=2 / sliced_threads=0 / nr=0 / decimate=0 / interlaced=0 / bluray_compat=0 / constrained_intra=0 / fgo=0 / bframes=8 / b_pyramid=2 / b_adapt=2 / b_bias=0 / direct=3 / weightb=1 / open_gop=0 / weightp=2 / keyint=250 / keyint_min=24 / scenecut=40 / intra_refresh=0 / rc_lookahead=60 / rc=crf / mbtree=0 / crf=16.2000 / qcomp=0.70 / qpmin=0:0:0 / qpmax=69:69:69 / qpstep=4 / vbv_maxrate=50000 / vbv_bufsize=62500 / crf_max=0.0 / nal_hrd=none / filler=0 / ip_ratio=1.30 / pb_ratio=1.20 / aq=1:0.80 / aq-sensitivity=10.00 / aq-factor=1.00:1.00:1.00 / aq2=0 / aq3=0 / zones=180,981,b=1.8/2532,4922,b=1.5/26877,26952,b=1.5/27019,27178,b=1.5/56113,56155,b=1.5
Language : Chinese
Default : Yes
Forced : No
Matrix coefficients : BT.709

Audio #1
ID : 2
Format : DTS
Format/Info : Digital Theater Systems
Mode : 16
Format settings, Endianness : Big
Codec ID : A_DTS
Duration : 1h 40mn
Bit rate mode : Constant
Bit rate : 1 510 Kbps
Channel(s) : 6 channels
Channel positions : Front: L C R, Side: L R, LFE
Sampling rate : 48.0 KHz
Bit depth : 24 bits
Compression mode : Lossy
Stream size : 1.05 GiB (8%)
Title : VO [zamez]
Language : Russian
Default : Yes
Forced : No

Audio #2
ID : 3
Format : DTS
Format/Info : Digital Theater Systems
Mode : 16
Format settings, Endianness : Big
Codec ID : A_DTS
Duration : 1h 40mn
Bit rate mode : Constant
Bit rate : 1 509 Kbps
Channel(s) : 6 channels
Channel positions : Front: L C R, Side: L R, LFE
Sampling rate : 48.0 KHz
Bit depth : 16 bits
Compression mode : Lossy
Stream size : 1.05 GiB (8%)
Title : Cantonese
Language : Chinese
Default : No
Forced : No

Text #1
ID : 4
Format : UTF-8
Codec ID : S_TEXT/UTF8
Codec ID/Info : UTF-8 Plain Text
Language : English
Default : No
Forced : No

Text #2
ID : 5
Format : UTF-8
Codec ID : S_TEXT/UTF8
Codec ID/Info : UTF-8 Plain Text
Title : [mihalev]
Language : Russian
Default : No
Forced : No

Text #3
ID : 6
Format : UTF-8
Codec ID : S_TEXT/UTF8
Codec ID/Info : UTF-8 Plain Text
Title : Simplified
Language : Chinese
Default : No
Forced : No

Text #4
ID : 7
Format : UTF-8
Codec ID : S_TEXT/UTF8
Codec ID/Info : UTF-8 Plain Text
Title : Traditional
Language : Chinese
Default : No
Forced : No

Menu
00:00:00.000 : en:00:00:00.000
00:07:54.667 : en:00:07:54.667
00:14:51.083 : en:00:14:51.083
00:25:19.083 : en:00:25:19.083
00:33:39.458 : en:00:33:39.458
00:41:16.750 : en:00:41:16.750
00:50:02.208 : en:00:50:02.208
00:58:43.417 : en:00:58:43.417
01:07:20.000 : en:01:07:20.000
01:14:41.833 : en:01:14:41.833
01:23:55.917 : en:01:23:55.917
01:33:36.708 : en:01:33:36.708


Скачать Poslednij_iz_luchshih.2014.L1.1080p.BluRay.x264.torrent

просмотры: 4

Post Comment