Зарубежные фильмы Криминал

Абсолютное зло / Meeting Evil (2012) BDRip 1080p | P, L2, A


Информация о фильме
✧ Название: Абсолютное зло
✧ Оригинальное название: Meeting Evil
✧ Год выхода: 2012
Жанр: триллер, драма, криминал, детектив
✧ Выпущено: США
✧ Продолжительность: 01:28:58
✧ Перевод: Профессиональный многоголосый, любительский двухголосый, авторский одноголосый
✧ Режиссер: Крис Фишер / Chris Fisher
✧ В ролях: Сэмюэл Л. Джексон, Люк Уилсон, Лесли Бибб, Пейтон Лист, Трейси Томс, Райан Ли, Мьюз Уотсон, Дж.Д. Эвермор, Джиллиан Басерсон, Джейсон Алан Смит


✧ О фильме:
Разочарованный жизнью молодой семьянин Джон открывает дверь таинственному незнакомцу Ричи. С этой минуты, сам того не желая, Джон становится участником убийственной поездки, которая преображает его из человека со слабой волей в отчаянного героя, готового пойти на все, чтобы защитить свою семью.


Файл
✧ Качество: BDRip 1080p
✧ Видео: MPEG-4 AVC, 1920×1080 (16:9), 12,6 Mbps, 23.976 fps, 0.253 bpp
✧ Аудио 1: Russian: AC3 / 5.1 / 48 kHz / 384 kbps — MVO, R5
✧ Аудио 2: Russian: AC3 / 2.0 / 48 kHz / 192 kbps — DVO, Чип и Дейл
✧ Аудио 3: Russian: AC3 / 5.1 / 48 kHz / 640 kbps — AVO, М. Яроцкий
✧ Аудио 4: English: AC3 / 5.1 / 48 kHz / 640 kbps — Оригинал
✧ Субтитры: Русские, английские
✧ Навигация по главам: есть

Скриншоты


MediaInfo
Общее
Уникальный идентификатор : 242728366623787733528232118786819215322 (0xB69BC87048549D8AACD3821C436DCFDA)
Полное имя : Meeting.Evil.2012.BDRip.1080p.mkv
Формат : Matroska
Версия формата : Version 2
Размер файла : 8,97 Гбайт
Продолжительность : 1 ч. 29 м.
Общий поток : 14,4 Мбит/сек
Дата кодирования : UTC 2017-11-22 16:21:25
Программа кодирования : mkvmerge v5.8.0 ('No Sleep / Pillow') built on Sep 2 2012 15:37:04
Библиотека кодирования : libebml v1.2.3 + libmatroska v1.3.0

Видео
Идентификатор : 1
Формат : AVC
Формат/Информация : Advanced Video Codec
Профиль формата : [email protected]
Параметр CABAC формата : Да
Параметр RefFrames формата : 4 кадра
Идентификатор кодека : V_MPEG4/ISO/AVC
Продолжительность : 1 ч. 29 м.
Битрейт : 12,6 Мбит/сек
Ширина : 1920 пикселей
Высота : 1080 пикселей
Соотношение сторон : 16:9
Режим частоты кадров : Постоянный
Частота кадров : 23,976 (24000/1001) кадра/сек
Цветовое пространство : YUV
Субдискретизация насыщенности : 4:2:0
Битовая глубина : 8 бит
Тип развёртки : Прогрессивная
Бит/(Пиксели*Кадры) : 0.253
Размер потока : 7,64 Гбайт (85%)
Заголовок : Meeting.Evil.2012.BDRip.1080p
Библиотека кодирования : x264 core 125 r2200 999b753
Настройки программы : cabac=1 / ref=4 / deblock=1:-2:-2 / analyse=0x3:0x113 / me=umh / subme=10 / psy=1 / psy_rd=1.20:0.20 / mixed_ref=1 / me_range=32 / chroma_me=1 / trellis=2 / 8x8dct=1 / cqm=0 / deadzone=21,11 / fast_pskip=0 / chroma_qp_offset=-3 / threads=12 / lookahead_threads=2 / sliced_threads=0 / nr=0 / decimate=0 / interlaced=0 / bluray_compat=0 / constrained_intra=0 / bframes=5 / b_pyramid=2 / b_adapt=2 / b_bias=0 / direct=3 / weightb=1 / open_gop=0 / weightp=2 / keyint=240 / keyint_min=1 / scenecut=40 / intra_refresh=0 / rc_lookahead=72 / rc=2pass / mbtree=1 / bitrate=12570 / ratetol=1.0 / qcomp=0.60 / qpmin=10 / qpmax=51 / qpstep=4 / cplxblur=20.0 / qblur=0.5 / vbv_maxrate=38000 / vbv_bufsize=38000 / nal_hrd=none / ip_ratio=1.40 / aq=1:1.00
Язык : English
Default : Да
Forced : Нет

Аудио #1
Идентификатор : 2
Формат : AC-3
Формат/Информация : Audio Coding 3
Параметр Endianness формата : Big
Идентификатор кодека : A_AC3
Продолжительность : 1 ч. 29 м.
Вид битрейта : Постоянный
Битрейт : 384 Кбит/сек
Каналы : 6 каналов
Расположение каналов : Front: L C R, Side: L R, LFE
Частота : 48,0 КГц
Частота кадров : 31,250 кадров/сек (1536 SPF)
Битовая глубина : 16 бит
Метод сжатия : С потерями
Размер потока : 245 Мбайт (3%)
Заголовок : MVO, R5
Язык : Russian
Default : Да
Forced : Нет

Аудио #2
Идентификатор : 3
Формат : AC-3
Формат/Информация : Audio Coding 3
Параметр Endianness формата : Big
Идентификатор кодека : A_AC3
Продолжительность : 1 ч. 29 м.
Вид битрейта : Постоянный
Битрейт : 192 Кбит/сек
Каналы : 2 канала
Расположение каналов : Front: L R
Частота : 48,0 КГц
Частота кадров : 31,250 кадров/сек (1536 SPF)
Битовая глубина : 16 бит
Метод сжатия : С потерями
Размер потока : 122 Мбайт (1%)
Заголовок : DVO, Чип и Дейл
Язык : Russian
Default : Нет
Forced : Нет

Аудио #3
Идентификатор : 4
Формат : AC-3
Формат/Информация : Audio Coding 3
Параметр Endianness формата : Big
Идентификатор кодека : A_AC3
Продолжительность : 1 ч. 29 м.
Вид битрейта : Постоянный
Битрейт : 640 Кбит/сек
Каналы : 6 каналов
Расположение каналов : Front: L C R, Side: L R, LFE
Частота : 48,0 КГц
Частота кадров : 31,250 кадров/сек (1536 SPF)
Битовая глубина : 16 бит
Метод сжатия : С потерями
Размер потока : 408 Мбайт (4%)
Заголовок : AVO, М. Яроцкий
Язык : Russian
Default : Нет
Forced : Нет

Аудио #4
Идентификатор : 5
Формат : AC-3
Формат/Информация : Audio Coding 3
Параметр Endianness формата : Big
Идентификатор кодека : A_AC3
Продолжительность : 1 ч. 29 м.
Вид битрейта : Постоянный
Битрейт : 640 Кбит/сек
Каналы : 6 каналов
Расположение каналов : Front: L C R, Side: L R, LFE
Частота : 48,0 КГц
Частота кадров : 31,250 кадров/сек (1536 SPF)
Битовая глубина : 16 бит
Метод сжатия : С потерями
Размер потока : 408 Мбайт (4%)
Заголовок : Оригинал
Язык : English
Default : Нет
Forced : Нет

Текст #1
Идентификатор : 6
Формат : UTF-8
Идентификатор кодека : S_TEXT/UTF8
Идентификатор кодека/Информация : UTF-8 Plain Text
Язык : Russian
Default : Нет
Forced : Нет

Текст #2
Идентификатор : 7
Формат : UTF-8
Идентификатор кодека : S_TEXT/UTF8
Идентификатор кодека/Информация : UTF-8 Plain Text
Язык : English
Default : Нет
Forced : Нет

Меню
00:00:00.000 : en:Chapter 00
00:04:34.190 : en:Chapter 01
00:10:50.608 : en:Chapter 02
00:16:17.059 : en:Chapter 03
00:21:29.162 : en:Chapter 04
00:25:44.793 : en:Chapter 05
00:30:27.033 : en:Chapter 06
00:37:13.272 : en:Chapter 07
00:42:01.310 : en:Chapter 08
00:45:43.323 : en:Chapter 09
00:52:52.377 : en:Chapter 10
00:55:39.294 : en:Chapter 11
01:00:18.072 : en:Chapter 12
01:04:46.883 : en:Chapter 13
01:11:45.134 : en:Chapter 14
01:19:17.544 : en:Chapter 15


Скачать Meeting.Evil.2012.BDRip.1080p.mkv.torrent

просмотры: 5

Post Comment