Телевизор

ОТРажение. Повышение налоговой нагрузки на бизнес [23.11] (2017) WEBRip 720p

Информация о фильме
Название: «ОТРажение». Повышение налоговой нагрузки на бизнес (Эфир от 23.11.17)
Год выхода: 2017
Жанр: Телепередача, информационная программа
Ведущие: Оксана Галькевич, Константин Чуриков
Участники: Сергей Зеленов, Евгений Федоров

О фильме:
ОТРажение – интерактивный информационно-аналитический проект ОТР. Выходит 5 раз в неделю с понедельника по пятницу в 17:00-21:00. Полный выпуск разделен на несколько отдельных тем.
В прямом эфире обсуждаются вопросы и проблемы в сфере экономики, культуры, образования и прочих сфер общественной жизни..

Тема часа в 20:00 — «Повышение налоговой нагрузки на бизнес». Без объявления войны… Налог на движимое имущество, или так называемый налог на модернизацию, могут вернуть уже в следующем году. Предполагалось, что освобождение от его уплаты продлят и на 2018 год, но Госдума неожиданно одобрила возвращение регионам права устанавливать его самостоятельно. Как отреагировал бизнес?

Официальный сайт

Страна: Россия, ОТР
Продолжительность: 00:47:37
Перевод: Не требуется

Файл
Кодек: h.264
Качество: WEBRip 720p
Видео: AVC MPEG-4, 1280×720 (16:9), ~1999 Kbps, 24 fps
Звук: AAC, 1 ch, 80 Kbps

MediaInfo

General
Unique ID : 226792596668864622096981983289238755752 (0xAA9EAA51B0A32E8EB719A814B8B219A8)
Complete name : D:FilmОТРажение Повышение налоговой нагрузки на бизнес.mkv
Format : Matroska
Format version : Version 4 / Version 2
File size : 709 MiB
Duration : 47 min 37 s
Overall bit rate : 2 082 kb/s
Encoded date : UTC 2017-11-24 12:10:24
Writing application : mkvmerge v18.0.0 ('Apricity') 64-bit
Writing library : libebml v1.3.5 + libmatroska v1.4.8
Cover : Yes
Attachments : cover.png

Video
ID : 1
Format : AVC
Format/Info : Advanced Video Codec
Format profile : [email protected]
Format settings : CABAC / 1 Ref Frames
Format settings, CABAC : Yes
Format settings, RefFrames : 1 frame
Codec ID : V_MPEG4/ISO/AVC
Duration : 47 min 37 s
Bit rate : 1 999 kb/s
Width : 1 280 pixels
Height : 720 pixels
Display aspect ratio : 16:9
Frame rate mode : Variable
Frame rate : 24.000 FPS
Color space : YUV
Chroma subsampling : 4:2:0
Bit depth : 8 bits
Scan type : Progressive
Bits/(Pixel*Frame) : 0.090
Stream size : 681 MiB (96%)
Language : Russian
Default : Yes
Forced : No

Audio
ID : 2
Format : AAC
Format/Info : Advanced Audio Codec
Format profile : LC
Codec ID : A_AAC-2
Duration : 47 min 37 s
Bit rate : 79.4 kb/s
Channel(s) : 1 channel
Channel positions : Front: C
Sampling rate : 48.0 kHz
Frame rate : 46.875 FPS (1024 SPF)
Compression mode : Lossy
Delay relative to video : 100 ms
Stream size : 27.1 MiB (4%)
Language : Russian
Default : Yes
Forced : No

Скриншоты


Скачать OTRazhenie_Povyishenie_nalogovoy_nagruzki_na_bi.torrent

просмотры: 2

Post Comment