Военный Зарубежные фильмы

Звёздные войны: Эпизод 3 – Месть Ситхов / Star Wars: Episode III — Revenge of the Sith (2005) BDRip-HEVC 1080p | Локализованная версия | D

Информация о фильме
Название: Звёздные войны: Эпизод 3 – Месть Ситхов
Оригинальное название: Star Wars: Episode III — Revenge of the Sith
Год выхода: 2005
Жанр: фантастика, приключения
Режиссер: Джордж Лукас
В ролях: Юэн МакГрегор, Хейден Кристенсен, Иен МакДермид, Сэмюэл Л. Джексон, Джимми Смитс, Фрэнк Оз, Энтони Дэниелс, Кристофер Ли, Киша Касл-Хьюз, Сайлас Карсон, Джей Лагаая

О фильме:
Со времен, описанных во втором эпизоде, прошло 3 года. Энакин окончательно встает на темную сторону силы и превращается в Дарта Вейдера. Республика гибнет под ударами крепнущей Империи, Джедаи теряют контроль над галактикой, а Падме готовится к тому, чтобы стать матерью. Все эти события будут разворачиваться на фоне грандиозной битвы, знаменующей финал Клонических войн…

Страна: США
Продолжительность: 02:20:05
Перевод: Дубляж (Нева-фильм), оригинал

Файл
Кодек: HEVC x265 10bit
Качество: BDRip-HEVC 1080p
Видео: 1920×816, 23.976 кадр/сек, 5919 Кбит/сек, 10bit
Звук:
Аудио1: Русская, AC3 448 Кбит/сек, 6 канала(ов),16bit 48,0 КГц
Аудио2: English, AC3 448 Кбит/сек, 6 канала(ов),16bit 48,0 КГц
Субтитры: Русские, English

Mediainfo
General
Unique ID : 245492856138388950265451861741962020537 (0xB8B0344B7F78DF3B8C16C3E7B98046B9)
Format : Matroska
Format version : Version 4 / Version 2
File size : 6.67 GiB
Duration : 2 h 20 min
Overall bit rate : 6 817 kb/s
Encoded date : UTC 2017-09-26 17:28:37
Writing application : mkvmerge v13.0.0 ('The Juggler') 64bit
Writing library : libebml v1.3.4 + libmatroska v1.4.5
Cover : Yes
Attachments : cover3.jpg

Video
ID : 1
Format : HEVC
Format/Info : High Efficiency Video Coding
Format profile : Main [email protected]@High
Codec ID : V_MPEGH/ISO/HEVC
Duration : 2 h 20 min
Bit rate : 5 919 kb/s
Width : 1 920 pixels
Height : 816 pixels
Display aspect ratio : 2.35:1
Frame rate mode : Constant
Frame rate : 23.976 (24000/1001) FPS
Color space : YUV
Chroma subsampling : 4:2:0
Bit depth : 10 bits
Bits/(Pixel*Frame) : 0.158
Stream size : 5.79 GiB (87%)
Writing library : x265 2.5+16-bac53338585c:[Windows][GCC 7.1.0][64 bit] 10bit
Encoding settings : cpuid=1050111 / frame-threads=5 / numa-pools=4 / wpp / no-pmode / no-pme / no-psnr / no-ssim / log-level=3 / input-csp=1 / input-res=1920×816 / interlace=0 / total-frames=0 / level-idc=41 / high-tier=1 / uhd-bd=0 / ref=4 / no-allow-non-conformance / no-repeat-headers / annexb / no-aud / no-hrd / info / hash=0 / no-temporal-layers / open-gop / min-keyint=23 / keyint=250 / bframes=10 / b-adapt=2 / b-pyramid / bframe-bias=0 / rc-lookahead=40 / lookahead-slices=5 / scenecut=40 / no-intra-refresh / ctu=64 / min-cu-size=8 / no-rect / no-amp / max-tu-size=32 / tu-inter-depth=2 / tu-intra-depth=2 / limit-tu=0 / rdoq-level=0 / dynamic-rd=0.00 / no-ssim-rd / signhide / no-tskip / nr-intra=0 / nr-inter=0 / no-constrained-intra / strong-intra-smoothing / max-merge=3 / limit-refs=3 / no-limit-modes / me=3 / subme=7 / merange=32 / temporal-mvp / weightp / weightb / no-analyze-src-pics / deblock=-3:-3 / no-sao / no-sao-non-deblock / rd=3 / no-early-skip / rskip / no-fast-intra / no-tskip-fast / no-cu-lossless / no-b-intra / no-splitrd-skip / rdpenalty=0 / psy-rd=2.00 / psy-rdoq=0.00 / no-rd-refine / analysis-reuse-mode=0 / no-lossless / cbqpoffs=0 / crqpoffs=0 / rc=crf / crf=18.5 / qcomp=0.60 / qpstep=4 / stats-write=0 / stats-read=0 / vbv-maxrate=50000 / vbv-bufsize=35714 / vbv-init=0.9 / crf-max=30.0 / crf-min=0.0 / ipratio=1.40 / pbratio=1.30 / aq-mode=2 / aq-strength=1.00 / cutree / zone-count=0 / no-strict-cbr / qg-size=32 / no-rc-grain / qpmax=69 / qpmin=0 / no-const-vbv / sar=1 / overscan=0 / videoformat=5 / range=0 / colorprim=2 / transfer=2 / colormatrix=2 / chromaloc=0 / display-window=0 / max-cll=0,0 / min-luma=0 / max-luma=1023 / log2-max-poc-lsb=8 / vui-timing-info / vui-hrd-info / slices=1 / opt-qp-pps / opt-ref-list-length-pps / no-multi-pass-opt-rps / scenecut-bias=0.05 / no-opt-cu-delta-qp / no-aq-motion / no-hdr / no-hdr-opt / no-dhdr10-opt / analysis-reuse-level=5 / scale-factor=0 / refine-intra=0 / refine-inter=0 / refine-mv=0 / no-limit-sao / ctu-info=0
Default : Yes
Forced : No

Audio #1
ID : 2
Format : AC-3
Format/Info : Audio Coding 3
Format settings, Endianness : Big
Codec ID : A_AC3
Duration : 2 h 20 min
Bit rate mode : Constant
Bit rate : 448 kb/s
Channel(s) : 6 channels
Channel positions : Front: L C R, Side: L R, LFE
Sampling rate : 48.0 kHz
Frame rate : 31.250 FPS (1536 SPF)
Bit depth : 16 bits
Compression mode : Lossy
Stream size : 449 MiB (7%)
Language : Russian
Service kind : Complete Main
Default : Yes
Forced : No

Audio #2
ID : 3
Format : AC-3
Format/Info : Audio Coding 3
Format settings, Endianness : Big
Codec ID : A_AC3
Duration : 2 h 20 min
Bit rate mode : Constant
Bit rate : 448 kb/s
Channel(s) : 6 channels
Channel positions : Front: L C R, Side: L R, LFE
Sampling rate : 48.0 kHz
Frame rate : 31.250 FPS (1536 SPF)
Bit depth : 16 bits
Compression mode : Lossy
Delay relative to video : 2 s 750 ms
Stream size : 449 MiB (7%)
Language : English
Service kind : Complete Main
Default : No
Forced : No

Text #1
ID : 4
Format : UTF-8
Codec ID : S_TEXT/UTF8
Codec ID/Info : UTF-8 Plain Text
Duration : 2 h 10 min
Bit rate : 62 b/s
Count of elements : 1105
Stream size : 59.2 KiB (0%)
Language : Russian
Default : Yes
Forced : No

Text #2
ID : 5
Format : UTF-8
Codec ID : S_TEXT/UTF8
Codec ID/Info : UTF-8 Plain Text
Duration : 2 h 7 min
Bit rate : 41 b/s
Count of elements : 1146
Stream size : 38.5 KiB (0%)
Language : English
Default : No
Forced : No

Menu
00:00:00.000 : en:Начало
00:00:23.523 : en:Месть ситхов
00:01:50.068 : en:Битва над Корусантом
00:08:28.132 : en:Генерал Гривус
00:11:23.349 : en:Спасение канцлера
00:18:33.737 : en:Лицом к лицу с Гривусом
00:23:40.460 : en:Счастливые встречи
00:27:37.697 : en:Гривус на Утапау
00:29:12.959 : en:Страшные сны
00:33:18.913 : en:Наставление Йоды
00:35:45.434 : en:Просьба канцлера
00:36:47.997 : en:В совете джедаев
00:38:21.465 : en:Секретное поручение
00:40:17.456 : en:Не избранный?
00:41:18.601 : en:Появление недоверия
00:42:41.058 : en:Трагедия Дарта Плэгаса
00:48:01.587 : en:Кашиик
00:50:20.517 : en:Прощание братьев
00:52:24.933 : en:Потерянный герой
00:53:58.026 : en:Прибытие на Утапау
00:56:26.466 : en:Оби-Ван против Гривуса
01:00:56.277 : en:Военный совет джедаев
01:01:56.546 : en:Разоблачение Сидиуса
01:05:26.047 : en:Погоня на Утапау
01:07:40.598 : en:Мейс узнает правду
01:09:06.976 : en:Роковое решение Энакина
01:10:52.998 : en:Мейс против Сидиуса
01:15:19.223 : en:"Встань, лорд Вейдер"
01:19:15.250 : en:Нападение на храм джедаев
01:20:37.457 : en:Приказ 66
01:24:20.597 : en:Пора уйти
01:27:56.521 : en:"Жди меня"
01:29:57.391 : en:Герои собираются вместе
01:33:40.406 : en:Рождение Империи
01:36:39.460 : en:Страшная правда
01:38:35.534 : en:Встреча Оби-Вана с Падме
01:41:24.369 : en:Отлет Падме
01:42:57.004 : en:"Та разбиваешь мне сердце"
01:48:18.783 : en:Йода прииходит к Императору
01:50:59.444 : en:Битва героев
01:52:44.007 : en:Йода против Сидиуса
01:54:22.855 : en:На краю гибели
01:56:54.924 : en:Жертвоприношение
02:02:20.875 : en:Прибытие Императора
02:03:32.863 : en:Тайные роды
02:05:19.637 : en:Рождение и возрождение
02:07:37.107 : en:Пробуждение Дарт Вейдера
02:08:57.062 : en:Будущее близнецов
02:12:04.958 : en:Новая надежда
02:13:47.352 : en:Финальные титры

Скриншоты

Релиз от: Cthulhu


Скачать Star_Wars._Episode_III_-_Revenge_of_the_Sith_20.torrent

просмотры: 3

Post Comment