Детектив Зарубежные фильмы

Имитатор / Copycat (1995) BDRip 720p | P, A

Информация о фильме
Название: Имитатор
Оригинальное название: Copycat
Год выпуска: 1995
Жанр: триллер, драма, детектив
Режиссер: Джон Эмиел
В ролях: Сигурни Уивер (Helen Hudson), Холли Хантер (M.J. Monahan), Дермот Малруни (Reuben Goetz), Уильям МакНамара (Peter Foley), Гарри Конник мл. (Daryll Lee Cullum), Дж.Э. Фримен (Lt. Quinn), Уилл Пэттон (Nicoletti), Джон Ротмен (Andy), Шэннон О’Хёрли (Susan Schiffer), Боб Грин (Pachulski), Тони Хейни (Kerby), Дэнни Ковач (Kostas)

О фильме:
Сан-Франциско потрясен серией жестоких убийств, каждое из которых копирует аналогичные преступления, совершенные в прошлом разными маньяками. Чтобы остановить волну убийств, сотрудница полиции Эм Джей Монахан обращается за помощью к доктору Хелен Хадсон, специалисту по психологии маньяков.

MPAA: R — Лицам до 17 лет обязательно присутствие взрослого

Страна: США
Студия: New Regency Pictures 2. Regency Enterprises
Продолжительность: 02:03:05
Перевод: Профессиональный (многоголосый, закадровый), Авторский (одноголосый, закадровый)

Файл
Качество: BDRip 720p
Формат: Matroska
Видео: 1280×534 at 23.976 fps, x264, ~4640 kbps avg
Аудио#1: Russian: 48 kHz, AC3, 3/2 (L,C,R,l,r) + LFE ch, ~448 kbps avg |Профессиональный многоголосый, Гемини-Фильм|
Аудио#2: Russian: 48 kHz, AC3, 2/0 (L,R) ch, ~192 kbps avg |Профессиональный многоголосый, Первый канал|
Аудио#3: Russian: 48 kHz, AC3, 2/0 (L,R) ch, ~192 kbps avg |Авторский, А.Гаврилов|
Аудио#4: Russian: 48 kHz, AC3, 2/0 (L,R) ch, ~192 kbps avg |Авторский, В.Горчаков|
Аудио#5: Russian: 48 kHz, AC3, 3/2 (L,C,R,l,r) + LFE ch, ~640 kbps avg |Авторский, Ю.Живов|
Аудио#6: English: 48 kHz, AC3, 3/2 (L,C,R,l,r) + LFE ch, ~448 kbps avg
Субтитры: Russian, English

***Сохранены оригинальные главы как на Blu-ray.
***Релиз — msltel.

Знаете ли вы, что…

  • Разница в росте Холли Хантер и Сигурни Уивер составляет почти 20 см. Из-за этого на протяжении всего фильма в сценах, где задействованы обе актрисы, одна из них либо сидит, либо стоит в другой части комнаты.
  • Музыка из фильма была впоследствии использована в триллере режиссёра Джима Гиллеспи «Я знаю, что вы сделали прошлым летом» (1997) с Дженнифер Лав Хьюитт в главной роли.
  • MediaInfo
    Общее
    Уникальный идентификатор : 244662508030656120570470625993761097716 (0xB81048F8F0762EB997E18C9EDBDA07F4)
    Полное имя : Имитатор.1995.BDRip.720p by msltel.mkv
    Формат : Matroska
    Версия формата : Version 4 / Version 2
    Размер файла : 5,92 Гбайт
    Продолжительность : 2 ч. 3 м.
    Общий поток : 6889 Кбит/сек
    Название фильма : Rip by msltel
    Дата кодирования : UTC 2017-11-15 02:30:56
    Программа кодирования : mkvmerge v8.2.0 ('World of Adventure') 64bit
    Библиотека кодирования : libebml v1.3.1 + libmatroska v1.4.2

    Видео
    Идентификатор : 1
    Формат : AVC
    Формат/Информация : Advanced Video Codec
    Профиль формата : [email protected]
    Параметр CABAC формата : Да
    Параметр ReFrames формата : 9 кадров
    Идентификатор кодека : V_MPEG4/ISO/AVC
    Продолжительность : 2 ч. 3 м.
    Битрейт : 4640 Кбит/сек
    Ширина : 1280 пикселей
    Высота : 534 пикселя
    Соотношение сторон : 2,40:1
    Режим частоты кадров : Постоянный
    Частота кадров : 23,976 кадра/сек
    Цветовое пространство : YUV
    Субдискретизация насыщенности : 4:2:0
    Битовая глубина : 8 бит
    Тип развёртки : Прогрессивная
    Бит/(Пиксели*Кадры) : 0.283
    Размер потока : 3,99 Гбайт (67%)
    Библиотека кодирования : x264 core 146 r2538 121396c
    Настройки программы : cabac=1 / ref=9 / deblock=1:-3:-2 / analyse=0x3:0x113 / me=umh / subme=11 / psy=1 / psy_rd=1.00:0.15 / mixed_ref=1 / me_range=32 / chroma_me=1 / trellis=2 / 8x8dct=1 / cqm=0 / deadzone=21,11 / fast_pskip=0 / chroma_qp_offset=-3 / threads=6 / lookahead_threads=1 / sliced_threads=0 / nr=0 / decimate=1 / interlaced=0 / bluray_compat=0 / constrained_intra=0 / bframes=9 / b_pyramid=2 / b_adapt=2 / b_bias=0 / direct=1 / weightb=1 / open_gop=0 / weightp=2 / keyint=230 / keyint_min=23 / scenecut=40 / intra_refresh=0 / rc_lookahead=40 / rc=crf / mbtree=0 / crf=19.7 / qcomp=0.60 / qpmin=0 / qpmax=69 / qpstep=4 / vbv_maxrate=62500 / vbv_bufsize=78125 / crf_max=0.0 / nal_hrd=none / filler=0 / ip_ratio=1.40 / pb_ratio=1.30 / aq=1:1.00
    Язык : English
    Default : Да
    Forced : Нет

    Аудио #1
    Идентификатор : 2
    Формат : AC-3
    Формат/Информация : Audio Coding 3
    Расширение режима : CM (complete main)
    Параметр Endianness формата : Big
    Идентификатор кодека : A_AC3
    Продолжительность : 2 ч. 3 м.
    Вид битрейта : Постоянный
    Битрейт : 448 Кбит/сек
    Каналы : 6 каналов
    Расположение каналов : Front: L C R, Side: L R, LFE
    Частота : 48,0 КГц
    Битовая глубина : 16 бит
    Метод сжатия : С потерями
    Размер потока : 394 Мбайт (7%)
    Заголовок : MVO Гемини фильм
    Язык : Russian
    Default : Да
    Forced : Нет

    Аудио #2
    Идентификатор : 3
    Формат : AC-3
    Формат/Информация : Audio Coding 3
    Расширение режима : CM (complete main)
    Параметр Endianness формата : Big
    Идентификатор кодека : A_AC3
    Продолжительность : 2 ч. 3 м.
    Вид битрейта : Постоянный
    Битрейт : 192 Кбит/сек
    Каналы : 2 канала
    Расположение каналов : Front: L R
    Частота : 48,0 КГц
    Битовая глубина : 16 бит
    Метод сжатия : С потерями
    Размер потока : 169 Мбайт (3%)
    Заголовок : MVO Первый канал
    Язык : Russian
    Default : Нет
    Forced : Нет

    Аудио #3
    Идентификатор : 4
    Формат : AC-3
    Формат/Информация : Audio Coding 3
    Расширение режима : CM (complete main)
    Параметр Endianness формата : Big
    Идентификатор кодека : A_AC3
    Продолжительность : 2 ч. 3 м.
    Вид битрейта : Постоянный
    Битрейт : 192 Кбит/сек
    Каналы : 2 канала
    Расположение каналов : Front: L R
    Частота : 48,0 КГц
    Битовая глубина : 16 бит
    Метод сжатия : С потерями
    Размер потока : 169 Мбайт (3%)
    Заголовок : Андрей Гаврилов
    Язык : Russian
    Default : Нет
    Forced : Нет

    Аудио #4
    Идентификатор : 5
    Формат : AC-3
    Формат/Информация : Audio Coding 3
    Расширение режима : CM (complete main)
    Параметр Endianness формата : Big
    Идентификатор кодека : A_AC3
    Продолжительность : 2 ч. 3 м.
    Вид битрейта : Постоянный
    Битрейт : 192 Кбит/сек
    Каналы : 2 канала
    Расположение каналов : Front: L R
    Частота : 48,0 КГц
    Битовая глубина : 16 бит
    Метод сжатия : С потерями
    Размер потока : 169 Мбайт (3%)
    Заголовок : Василий Горчаков
    Язык : Russian
    Default : Нет
    Forced : Нет

    Аудио #5
    Идентификатор : 6
    Формат : AC-3
    Формат/Информация : Audio Coding 3
    Расширение режима : CM (complete main)
    Параметр Endianness формата : Big
    Идентификатор кодека : A_AC3
    Продолжительность : 2 ч. 3 м.
    Вид битрейта : Постоянный
    Битрейт : 640 Кбит/сек
    Каналы : 6 каналов
    Расположение каналов : Front: L C R, Side: L R, LFE
    Частота : 48,0 КГц
    Битовая глубина : 16 бит
    Метод сжатия : С потерями
    Размер потока : 563 Мбайт (9%)
    Заголовок : Юрий Живов
    Язык : Russian
    Default : Нет
    Forced : Нет

    Аудио #6
    Идентификатор : 7
    Формат : AC-3
    Формат/Информация : Audio Coding 3
    Расширение режима : CM (complete main)
    Параметр Endianness формата : Big
    Идентификатор кодека : A_AC3
    Продолжительность : 2 ч. 3 м.
    Вид битрейта : Постоянный
    Битрейт : 448 Кбит/сек
    Каналы : 6 каналов
    Расположение каналов : Front: L C R, Side: L R, LFE
    Частота : 48,0 КГц
    Битовая глубина : 16 бит
    Метод сжатия : С потерями
    Размер потока : 394 Мбайт (7%)
    Заголовок : original
    Язык : English
    Default : Нет
    Forced : Нет

    Текст #1
    Идентификатор : 8
    Формат : UTF-8
    Идентификатор кодека : S_TEXT/UTF8
    Идентификатор кодека/Информация : UTF-8 Plain Text
    Заголовок : русские
    Язык : Russian
    Default : Нет
    Forced : Нет

    Текст #2
    Идентификатор : 9
    Формат : UTF-8
    Идентификатор кодека : S_TEXT/UTF8
    Идентификатор кодека/Информация : UTF-8 Plain Text
    Заголовок : английские
    Язык : English
    Default : Нет
    Forced : Нет

    Меню
    00:00:00.000 : en:00:00:00.000
    00:03:51.398 : en:00:03:51.398
    00:07:12.098 : en:00:07:12.098
    00:10:25.500 : en:00:10:25.500
    00:12:41.844 : en:00:12:41.844
    00:13:53.249 : en:00:13:53.249
    00:19:19.950 : en:00:19:19.950
    00:20:50.249 : en:00:20:50.249
    00:25:26.692 : en:00:25:26.692
    00:31:40.107 : en:00:31:40.107
    00:33:41.478 : en:00:33:41.478
    00:36:21.262 : en:00:36:21.262
    00:38:16.252 : en:00:38:16.252
    00:42:17.493 : en:00:42:17.493
    00:47:07.825 : en:00:47:07.825
    00:48:41.085 : en:00:48:41.085
    00:51:32.840 : en:00:51:32.840
    00:53:50.894 : en:00:53:50.894
    00:58:07.067 : en:00:58:07.067
    01:00:21.868 : en:01:00:21.868
    01:06:42.248 : en:01:06:42.248
    01:09:16.402 : en:01:09:16.402
    01:11:31.662 : en:01:11:31.662
    01:14:42.770 : en:01:14:42.770
    01:16:41.555 : en:01:16:41.555
    01:21:54.952 : en:01:21:54.952
    01:25:31.793 : en:01:25:31.793
    01:28:22.547 : en:01:28:22.547
    01:32:50.607 : en:01:32:50.607
    01:36:12.141 : en:01:36:12.141
    01:38:13.596 : en:01:38:13.596
    01:39:26.210 : en:01:39:26.210
    01:42:36.317 : en:01:42:36.317
    01:47:33.155 : en:01:47:33.155
    01:49:34.151 : en:01:49:34.151
    01:51:02.656 : en:01:51:02.656
    01:52:25.822 : en:01:52:25.822
    01:53:35.392 : en:01:53:35.392
    01:55:30.215 : en:01:55:30.215
    Скриншоты


    Скачать Copycat.1995.720p.mkv.torrent

    просмотры: 3

    Post Comment