Драма Зарубежные фильмы

День, когда свинья упала в колодец / Daijiga umule pajinnal (1996) BDRemux 1080р | L1

Информация о фильме
Название: День, когда свинья упала в колодец
Оригинальное название: Daijiga umule pajinnal
Год выхода: 1996
Жанр: драма
Режиссер: Хон Сан-су
В ролях: Пан Ын-хи, Чо Ын-сук, Ким И-сон, Ли Ын-гён, Мён Джи-ён, Парк Чжин-сон, Сон Кан-хо

Описание: Фильм рассказывает о жизни и стремлениях четырех персонажей, находящихся в разных обстоятельствах: бедном писателе, неверной жене, муже-мизофобе и девушке-кассирше.

Страна: Южная Корея
Продолжительность: 01:56:06
Перевод: Любительский (одноголосый закадровый) О. Воротилин по субтитрам CapitanEvidence
Субтитры: русские (CapitanEvidence), английские
Оригинальная аудиодорожка: корейский

Файл
Качество: BDRemux 1080р
Видео: AVC / 1920×1080 / 16:9 / 23.976 fps / 22998 kbps / [email protected]
Аудио 1: Rus: DTS-HD MA / 48.0 KHz / 2.0 / 2048 kbps / 24 bit (DTS Core 48.0 KHz / 2.0 / 1509kbps / 24 bit) VO / О. Воротилин
Аудио 2: Kor: DTS-HD MA / 48.0 KHz / 2.0 / 2048 kbps / 24 bit (DTS Core 48.0 KHz / 2.0 / 1509kbps / 24 bit)

Скриншоты

MediaInfo
Общее
Уникальный идентификатор : 227880418507922311156171065173939533268 (0xAB702C139EEF7B7097B0AE3BD56B35D4)
Полное имя : E:porvaliparusThe.Day.A.Pig.Fell.Into.The.Well.1996.BDRemux.1080p.mkv
Формат : Matroska
Версия формата : Version 4 / Version 2
Размер файла : 22,0 Гбайт
Продолжительность : 1 ч. 56 м.
Режим общего битрейта : Переменный
Общий поток : 27,1 Мбит/сек
Название фильма : The.Day.A.Pig.Fell.Into.The.Well.1996.BDRemux.1080p-porvaliparus
Дата кодирования : UTC 2017-11-20 03:38:22
Программа кодирования : mkvmerge v18.0.0 ('Apricity') 64-bit
Библиотека кодирования : libebml v1.3.5 + libmatroska v1.4.8

Видео
Идентификатор : 1
Формат : AVC
Формат/Информация : Advanced Video Codec
Профиль формата : [email protected]
Настройки формата : CABAC / 4 Ref Frames
Параметр CABAC формата : Да
Параметр RefFrames формата : 4 кадра
Параметр GOP формата : M=3, N=24
Идентификатор кодека : V_MPEG4/ISO/AVC
Продолжительность : 1 ч. 56 м.
Вид битрейта : Переменный
Битрейт : 23,0 Мбит/сек
Максимальный битрейт : 35,0 Мбит/сек
Ширина : 1920 пикселей
Высота : 1080 пикселей
Соотношение сторон : 16:9
Режим частоты кадров : Постоянный
Частота кадров : 23,976 (24000/1001) кадра/сек
Стандарт вещания : NTSC
Цветовое пространство : YUV
Субдискретизация насыщенности : 4:2:0
Битовая глубина : 8 бит
Тип развёртки : Прогрессивная
Бит/(Пиксели*Кадры) : 0.463
Размер потока : 18,7 Гбайт (85%)
Заголовок : The.Day.A.Pig.Fell.Into.The.Well.1996.BDRemux.1080p
Default : Да
Forced : Нет
Цветовой диапазон : Limited
Основные цвета : BT.709
Характеристики трансфера : BT.709
Коэффициенты матрицы : BT.709

Аудио #1
Идентификатор : 2
Формат : DTS
Формат/Информация : Digital Theater Systems
Профиль формата : MA / Core
Идентификатор кодека : A_DTS
Продолжительность : 1 ч. 56 м.
Вид битрейта : Переменный / Постоянный
Битрейт : 2048 Кбит/сек / 1509 Кбит/сек
Каналы : 2 канала
Расположение каналов : Front: L R
Частота : 48,0 КГц
Частота кадров : 93,750 кадра/сек (512 SPF)
Битовая глубина : 24 бит
Метод сжатия : Без потерь / Lossy
Размер потока : 1,68 Гбайт (8%)
Заголовок : VO [О. Воротилин]
Язык : Russian
Default : Да
Forced : Нет

Аудио #2
Идентификатор : 3
Формат : DTS
Формат/Информация : Digital Theater Systems
Профиль формата : MA / Core
Идентификатор кодека : A_DTS
Продолжительность : 1 ч. 56 м.
Вид битрейта : Переменный / Постоянный
Битрейт : 2048 Кбит/сек / 1509 Кбит/сек
Каналы : 2 канала
Расположение каналов : / Front: L R
Частота : 48,0 КГц
Частота кадров : 93,750 кадра/сек (512 SPF)
Битовая глубина : 24 бит
Метод сжатия : Без потерь / Lossy
Размер потока : 1,67 Гбайт (8%)
Язык : Korean
Default : Нет
Forced : Нет

Текст #1
Идентификатор : 4
Формат : UTF-8
Идентификатор кодека : S_TEXT/UTF8
Идентификатор кодека/Информация : UTF-8 Plain Text
Продолжительность : 1 ч. 51 м.
Битрейт : 50 бит/сек
ElementCount : 933
Размер потока : 41,0 Кбайт (0%)
Заголовок : CapitanEvidence
Язык : Russian
Default : Нет
Forced : Нет

Текст #2
Идентификатор : 5
Формат : UTF-8
Идентификатор кодека : S_TEXT/UTF8
Идентификатор кодека/Информация : UTF-8 Plain Text
Продолжительность : 1 ч. 51 м.
Битрейт : 27 бит/сек
ElementCount : 930
Размер потока : 22,3 Кбайт (0%)
Язык : English
Default : Нет
Forced : Нет

Меню
00:00:00.000 : en:Chapter 01
00:02:15.176 : en:Chapter 02
00:08:37.141 : en:Chapter 03
00:16:44.169 : en:Chapter 04
00:22:57.751 : en:Chapter 05
00:36:39.030 : en:Chapter 06
00:46:09.224 : en:Chapter 07
00:56:57.038 : en:Chapter 08
01:02:58.816 : en:Chapter 09
01:14:09.528 : en:Chapter 10
01:18:32.833 : en:Chapter 11
01:22:24.814 : en:Chapter 12
01:29:38.581 : en:Chapter 13
01:37:15.120 : en:Chapter 14
01:44:02.986 : en:Chapter 15
01:54:34.492 : en:Chapter 16


Скачать The.Day.A.Pig.Fell.Into.The.Well.1996.BDRemux.1.torrent

просмотры: 3

Post Comment