Детский Зарубежные фильмы

Ценности семейки Аддамс / Addams Family Values (1993) WEB-DL 1080p | P, P2, A

Информация о фильме
Название: Ценности семейки Аддамс
Оригинальное название: Addams Family Values
Год выпуска: 1993
Жанр: фэнтези, комедия
Режиссер: Барри Зонненфельд
В ролях: Анжелика Хьюстон (Morticia Addams), Рауль Хулиа (Gomez Addams), Кристофер Ллойд (Uncle Fester Addams), Джоан Кьюсак (Debbie Jellinsky), Кристина Риччи (Wednesday Addams), Кэрол Кейн (Granny), Джимми Уоркмэн (Pugsley Addams), Кейтлин Хупер (Pubert Addams), Кристен Хупер (Pubert Addams), Карел Стрёйкен (Lurch), Дэвид Крамхолц (Joel Glicker), Кристофер Харт (Thing)

О фильме:
У Гомеса и Мортиши Аддамсов рождается сын. Они нанимают для ухода за новорождённым няню Дебби Джелински, которая, соблазнившись богатством дяди Фестера, влюбляет его в себя и начинает плести интриги против остальной семьи. Юная Уэнсди Аддамс обнаруживает коварные замыслы няни и начинает слежку за ней. Но вскоре, за излишнюю любознательность, Уэнсди и Пагсли ссылают в детский лагерь…

MPAA: PG-13 — Детям до 13 лет просмотр не желателен

Страна: США
Студия: Paramount Pictures, Scott Rudin Productions
Продолжительность: 01:34:12
Перевод: Профессиональный (многоголосый, закадровый), Профессиональный (двухголосый, закадровый), Авторский (одноголосый, закадровый)

Файл
Качество: WEB-DL 1080p
Формат: Matroska
Видео: 1920×1080 at 23.976 fps, MPEG-4 AVC, ~13400 kbps avg
Аудио#1: Russian: 48 kHz, AC3, 2/0 (L,R) ch, ~256 kbps avg |Многоголосый закадровый, СТС|
Аудио#2: Russian: 48 kHz, AC3, 2/0 (L,R) ch, ~192 kbps avg |Многоголосый закадровый, Paramount Channel|
Аудио#3: Russian: 48 kHz, AC3, 2/0 (L,R) ch, ~192 kbps avg |Двухголосый закадровый, Премьер Видео|
Аудио#4: Russian: 48 kHz, AC3, 3/2 (L,C,R,l,r) + LFE ch, ~448 kbps avg |Двухголосый закадровый, НТВ+/iTunes|
Аудио#5: Russian: 48 kHz, AC3, 3/2 (L,C,R,l,r) + LFE ch, ~448 kbps avg |Многоголосый закадровый|
Аудио#6: Russian: 48 kHz, AC3, 3/2 (L,C,R,l,r) + LFE ch, ~448 kbps avg |Авторский, А.Михалёв|
Аудио#7: Russian: 48 kHz, AC3, 2/0 (L,R) ch, ~192 kbps avg |Авторский, В.Сонькин|
Аудио#8: Russian: 48 kHz, AC3, 2/0 (L,R) ch, ~192 kbps avg |Авторский, В.Горчаков|
Аудио#9: Russian: 48 kHz, AC3, 3/2 (L,C,R,l,r) + LFE ch, ~448 kbps avg |Авторский, Ю.Сербин|
Аудио#10: Russian: 48 kHz, AC3, 2/0 (L,R) ch, ~256 kbps avg |Авторский, С.Визгунов|
Аудио#11: English: 48 kHz, EAC3, 3/2 (L,C,R,l,r) + LFE ch, ~640 kbps avg
Аудио#12: English: 48 kHz, EAC3, 2/0 (L,R) ch, ~224 kbps avg
Субтитры: Russian, English

***Сохранены и подписаны оригинальные главы.
***Релиз — lumez.

Доп. информация
***За исходный WEB-DL спасибо: maksnew.
***За дорожку СТС, Paramount Channel и НТВ+ спасибо: xfiles; Премьер Видео: smit009; А.Михалёва, В.Сонькина и Ю.Сербина: IVH; В.Горчакова: cooman1.
***За дорожку С.Визгунова спасибо: shrdlu. На отрезке 00:19:45-00:20:16, как и в исходной раздаче, есть рассинхронизация.
Знаете ли вы, что…

  • Фильм снят по комиксам Чарльза Аддамса.
  • MediaInfo
    Общее
    Уникальный идентификатор : 251881689301132218659772997267018964870 (0xBD7EA616E419F2268DFA8F96BFAF5F86)
    Полное имя : 1993.Addams.Family.Values.1080p.WEB-DL.H.264.mkv
    Формат : Matroska
    Версия формата : Version 4 / Version 2
    Размер файла : 11,6 Гбайт
    Продолжительность : 1 ч. 34 м.
    Режим общего битрейта : Переменный
    Общий поток : 17,6 Мбит/сек
    Дата кодирования : UTC 2017-11-14 08:28:16
    Программа кодирования : mkvmerge v7.4.0 ('Circles') 64bit built on Dec 12 2014 12:19:56
    Библиотека кодирования : libebml v1.3.0 + libmatroska v1.4.1
    Attachment : Yes

    Видео
    Идентификатор : 1
    Формат : AVC
    Формат/Информация : Advanced Video Codec
    Профиль формата : [email protected]
    Параметр CABAC формата : Да
    Параметр ReFrames формата : 4 кадра
    Идентификатор кодека : V_MPEG4/ISO/AVC
    Продолжительность : 1 ч. 34 м.
    Вид битрейта : Переменный
    Битрейт : 13,4 Мбит/сек
    Максимальный битрейт : 15,0 Мбит/сек
    Ширина : 1920 пикселей
    Высота : 1080 пикселей
    Соотношение сторон : 16:9
    Режим частоты кадров : Постоянный
    Частота кадров : 23,976 кадра/сек
    Цветовое пространство : YUV
    Субдискретизация насыщенности : 4:2:0
    Битовая глубина : 8 бит
    Тип развёртки : Прогрессивная
    Бит/(Пиксели*Кадры) : 0.269
    Размер потока : 8,79 Гбайт (76%)
    Язык : English
    Default : Да
    Forced : Нет
    Основные цвета : BT.709
    Характеристики трансфера : BT.709
    Коэффициенты матрицы : BT.709

    Аудио #1
    Идентификатор : 2
    Формат : AC-3
    Формат/Информация : Audio Coding 3
    Профиль формата : Dolby Digital
    Расширение режима : CM (complete main)
    Параметр Endianness формата : Big
    Идентификатор кодека : A_AC3
    Продолжительность : 1 ч. 34 м.
    Вид битрейта : Постоянный
    Битрейт : 256 Кбит/сек
    Каналы : 2 канала
    Расположение каналов : Front: L R
    Частота : 48,0 КГц
    Битовая глубина : 16 бит
    Метод сжатия : С потерями
    Размер потока : 172 Мбайт (1%)
    Заголовок : стс
    Язык : Russian
    Default : Да
    Forced : Нет

    Аудио #2
    Идентификатор : 3
    Формат : AC-3
    Формат/Информация : Audio Coding 3
    Профиль формата : Dolby Digital
    Расширение режима : CM (complete main)
    Параметр Endianness формата : Big
    Идентификатор кодека : A_AC3
    Продолжительность : 1 ч. 34 м.
    Вид битрейта : Постоянный
    Битрейт : 192 Кбит/сек
    Каналы : 2 канала
    Расположение каналов : Front: L R
    Частота : 48,0 КГц
    Битовая глубина : 16 бит
    Метод сжатия : С потерями
    Размер потока : 129 Мбайт (1%)
    Заголовок : paramount channel
    Язык : Russian
    Default : Нет
    Forced : Нет

    Аудио #3
    Идентификатор : 4
    Формат : AC-3
    Формат/Информация : Audio Coding 3
    Расширение режима : CM (complete main)
    Параметр Endianness формата : Big
    Идентификатор кодека : A_AC3
    Продолжительность : 1 ч. 34 м.
    Вид битрейта : Постоянный
    Битрейт : 192 Кбит/сек
    Каналы : 2 канала
    Расположение каналов : Front: L R
    Частота : 48,0 КГц
    Битовая глубина : 16 бит
    Метод сжатия : С потерями
    Размер потока : 129 Мбайт (1%)
    Заголовок : премьер видео фильм
    Язык : Russian
    Default : Нет
    Forced : Нет

    Аудио #4
    Идентификатор : 5
    Формат : AC-3
    Формат/Информация : Audio Coding 3
    Расширение режима : CM (complete main)
    Параметр Endianness формата : Big
    Идентификатор кодека : A_AC3
    Продолжительность : 1 ч. 34 м.
    Вид битрейта : Постоянный
    Битрейт : 448 Кбит/сек
    Каналы : 6 каналов
    Расположение каналов : Front: L C R, Side: L R, LFE
    Частота : 48,0 КГц
    Битовая глубина : 16 бит
    Метод сжатия : С потерями
    Размер потока : 302 Мбайт (3%)
    Заголовок : нтв+ / itunes
    Язык : Russian
    Default : Нет
    Forced : Нет

    Аудио #5
    Идентификатор : 6
    Формат : AC-3
    Формат/Информация : Audio Coding 3
    Расширение режима : CM (complete main)
    Параметр Endianness формата : Big
    Идентификатор кодека : A_AC3
    Продолжительность : 1 ч. 34 м.
    Вид битрейта : Постоянный
    Битрейт : 448 Кбит/сек
    Каналы : 6 каналов
    Расположение каналов : Front: L C R, Side: L R, LFE
    Частота : 48,0 КГц
    Битовая глубина : 16 бит
    Метод сжатия : С потерями
    Размер потока : 302 Мбайт (3%)
    Заголовок : mvo
    Язык : Russian
    Default : Нет
    Forced : Нет

    Аудио #6
    Идентификатор : 7
    Формат : AC-3
    Формат/Информация : Audio Coding 3
    Расширение режима : CM (complete main)
    Параметр Endianness формата : Big
    Идентификатор кодека : A_AC3
    Продолжительность : 1 ч. 34 м.
    Вид битрейта : Постоянный
    Битрейт : 448 Кбит/сек
    Каналы : 6 каналов
    Расположение каналов : Front: L C R, Side: L R, LFE
    Частота : 48,0 КГц
    Битовая глубина : 16 бит
    Метод сжатия : С потерями
    Размер потока : 302 Мбайт (3%)
    Заголовок : алексей михалёв
    Язык : Russian
    Default : Нет
    Forced : Нет

    Аудио #7
    Идентификатор : 8
    Формат : AC-3
    Формат/Информация : Audio Coding 3
    Расширение режима : CM (complete main)
    Параметр Endianness формата : Big
    Идентификатор кодека : A_AC3
    Продолжительность : 1 ч. 34 м.
    Вид битрейта : Постоянный
    Битрейт : 192 Кбит/сек
    Каналы : 2 канала
    Расположение каналов : Front: L R
    Частота : 48,0 КГц
    Битовая глубина : 16 бит
    Метод сжатия : С потерями
    Размер потока : 129 Мбайт (1%)
    Заголовок : владимир сонькин
    Язык : Russian
    Default : Нет
    Forced : Нет

    Аудио #8
    Идентификатор : 9
    Формат : AC-3
    Формат/Информация : Audio Coding 3
    Профиль формата : Dolby Digital
    Расширение режима : CM (complete main)
    Параметр Endianness формата : Big
    Идентификатор кодека : A_AC3
    Продолжительность : 1 ч. 34 м.
    Вид битрейта : Постоянный
    Битрейт : 192 Кбит/сек
    Каналы : 2 канала
    Расположение каналов : Front: L R
    Частота : 48,0 КГц
    Битовая глубина : 16 бит
    Метод сжатия : С потерями
    Размер потока : 129 Мбайт (1%)
    Заголовок : василий горчаков
    Язык : Russian
    Default : Нет
    Forced : Нет

    Аудио #9
    Идентификатор : 10
    Формат : AC-3
    Формат/Информация : Audio Coding 3
    Расширение режима : CM (complete main)
    Параметр Endianness формата : Big
    Идентификатор кодека : A_AC3
    Продолжительность : 1 ч. 34 м.
    Вид битрейта : Постоянный
    Битрейт : 448 Кбит/сек
    Каналы : 6 каналов
    Расположение каналов : Front: L C R, Side: L R, LFE
    Частота : 48,0 КГц
    Битовая глубина : 16 бит
    Метод сжатия : С потерями
    Размер потока : 302 Мбайт (3%)
    Заголовок : юрий сербин
    Язык : Russian
    Default : Нет
    Forced : Нет

    Аудио #10
    Идентификатор : 11
    Формат : AC-3
    Формат/Информация : Audio Coding 3
    Профиль формата : Dolby Digital
    Расширение режима : CM (complete main)
    Параметр Endianness формата : Big
    Идентификатор кодека : A_AC3
    Продолжительность : 1 ч. 34 м.
    Вид битрейта : Постоянный
    Битрейт : 192 Кбит/сек
    Каналы : 2 канала
    Расположение каналов : Front: L R
    Частота : 48,0 КГц
    Битовая глубина : 16 бит
    Метод сжатия : С потерями
    Размер потока : 129 Мбайт (1%)
    Заголовок : сергей визгунов
    Язык : Russian
    Default : Нет
    Forced : Нет

    Аудио #11
    Идентификатор : 12
    Формат : E-AC-3
    Формат/Информация : Audio Coding 3
    Параметр Endianness формата : Big
    Идентификатор кодека : A_EAC3
    Продолжительность : 1 ч. 34 м.
    Вид битрейта : Постоянный
    Битрейт : 640 Кбит/сек
    Каналы : 6 каналов
    Расположение каналов : Front: L C R, Side: L R, LFE
    Частота : 48,0 КГц
    Метод сжатия : С потерями
    Размер потока : 431 Мбайт (4%)
    Язык : English
    Default : Нет
    Forced : Нет

    Аудио #12
    Идентификатор : 13
    Формат : E-AC-3
    Формат/Информация : Audio Coding 3
    Параметр Endianness формата : Big
    Идентификатор кодека : A_EAC3
    Продолжительность : 1 ч. 34 м.
    Вид битрейта : Постоянный
    Битрейт : 224 Кбит/сек
    Каналы : 2 канала
    Расположение каналов : Front: L R
    Частота : 48,0 КГц
    Метод сжатия : С потерями
    Размер потока : 151 Мбайт (1%)
    Заголовок : 2.0
    Язык : English
    Default : Нет
    Forced : Нет

    Текст #1
    Идентификатор : 14
    Формат : UTF-8
    Идентификатор кодека : S_TEXT/UTF8
    Идентификатор кодека/Информация : UTF-8 Plain Text
    Язык : Russian
    Default : Нет
    Forced : Нет

    Текст #2
    Идентификатор : 15
    Формат : UTF-8
    Идентификатор кодека : S_TEXT/UTF8
    Идентификатор кодека/Информация : UTF-8 Plain Text
    Заголовок : CC
    Язык : English
    Default : Нет
    Forced : Нет

    Меню
    00:00:00.000 : en:Studio Logo
    00:00:23.000 : en:Wednesday Buries Her Cat; Addams' Cemetery
    00:01:16.000 : en:Thing Beats Gomez in Arm Wrestling; Living Room
    00:01:58.000 : en:The Doctors Rush Morticia to the Delivery Room; Hospital
    00:02:37.000 : en:Morticia Delivers the Baby; Hospital
    00:03:13.000 : en:Gomaz Surprises Morticia, Opening Credits; House
    00:04:54.000 : en:The Adults Fawn over Pubert; House
    00:05:38.000 : en:Wednesday and Pugsley Experiment with Pubert; House
    00:06:31.000 : en:Gomez Asks the Children Why They Hate Pubert; Living Room
    00:07:45.000 : en:Wednesday and Pugsley Try to Decapitate Pubert; Torture Room
    00:09:24.000 : en:Morticia Wants What Every Modern Woman Wants; Cemetery
    00:10:20.000 : en:Wednesday and Pugsley Meet the Nannies; House
    00:11:08.000 : en:Debbie Arrives from the Agency; House
    00:13:20.000 : en:Debbie Meets Wednesday and Pugsley; House
    00:14:16.000 : en:Debbie Meets Uncle Fester; Foyer
    00:15:00.000 : en:Debbie Settles In for the Night; House
    00:17:14.000 : en:Wednesday and Puglsey Try Crushing Pubert; Foyer
    00:18:03.000 : en:Debbie Searches through Uncle Fester's Papers; Office
    00:18:53.000 : en:Wednesday Confronts Debbie; Nursery
    00:19:37.000 : en:Debbie Lies to Morticia and Gomez; Living Room
    00:20:18.000 : en:The Addams Arrive at Camp; Camp Chippewa
    00:21:36.000 : en:The Camp Counselors Introduce Themselves; Camp Chippewa
    00:22:35.000 : en:Debbie Reels Uncle Fester In; Nursery
    00:23:21.000 : en:Uncle Fester Confesses His Love for Debbie; Office
    00:24:29.000 : en:Wednesday Practices Being a Life Guard; Lake
    00:25:27.000 : en:Morticia and Gomez Attempt to Help Uncle Fester; Bistro
    00:26:33.000 : en:Morticia and Gomez Encourage Debbie and Uncle Fester; Bistro
    00:28:00.000 : en:Gomez and Morticia Dance; Bistro
    00:30:35.000 : en:The Girls Share Ghost Stories; Cabin
    00:31:30.000 : en:Debbie Seduces Uncle Fester; Cemetery
    00:34:00.000 : en:Uncle Fester Announces His Engagement to Debbie; Nursery
    00:34:41.000 : en:Wednesday and Pugsley Learn of the Engagement; Cabin
    00:36:15.000 : en:Wednesday and Pugsley Earn Solitary Confinement; Harmony Hut
    00:36:53.000 : en:Wednesday and Pugsley Try to Escape; Camp
    00:38:26.000 : en:Debbie Meets the Extended Family; House
    00:39:19.000 : en:Gomez Throws Uncle Fester a Bachelor Party; Basement
    00:40:30.000 : en:Wednesday Is Fascinated by Joel; Lake
    00:41:46.000 : en:Uncle Fester and Debbie Wed; Cemetery
    00:43:32.000 : en:Debbie and Uncle Fester Depart for Their Honeymoon; Addams' Estate
    00:44:27.000 : en:Uncle Fester Enjoys His Honeymoon Bath; Bathroom
    00:45:40.000 : en:Debbie Convinces Uncle Fester to Give Up His Family; Hotel Bedroom
    00:47:53.000 : en:The Addams' Worry about Uncle Fester; Multiple Locations
    00:49:12.000 : en:Debbie Tells Uncle Fester He Needs to Make Some Changes; Airport
    00:49:55.000 : en:Uncle Fester and Debbie Move Into Their New Home; Outside Debbie's House
    00:50:35.000 : en:Gomez Laments the News from Uncle Fester; Bedroom
    00:51:49.000 : en:Gary and Becky Announce the Play; Camp
    00:54:09.000 : en:The Addams Family Visits Uncle Fester and Debbie; Debbie's House
    00:56:21.000 : en:Gomez Demands Justice; Police Station
    00:57:52.000 : en:The Campers Rehearse the Play; Camp
    00:59:47.000 : en:The Counselors Force Them to Watch Movies; Harmony Hut
    01:00:46.000 : en:Wednesday Reveals Her Desire to Be Perky; Outside Harmony Hut
    01:01:59.000 : en:Grandma Tries to Fix Pubert; House
    01:03:47.000 : en:Gary Unveils the Play He Has Written; Camp
    01:05:17.000 : en:Debbie Devises Another Plan to Kill Uncle Fester; Debbie's House
    01:07:04.000 : en:Wednesday Takes Some Creative License with the Play; Camp
    01:11:14.000 : en:Debbie Hurries to Check on Uncle Fester; Bar
    01:11:55.000 : en:Debbie and Uncle Fester Rehearse Their Lines; Multiple Locations
    01:15:05.000 : en:Wednesday and Joel Say Goodbye; Camp
    01:16:12.000 : en:Morticia Reads to Pubert; Nursery
    01:17:21.000 : en:The Addams Family Reunites Over Gomez; Bedroom
    01:19:16.000 : en:Debbie Holds the Addams Family Hostage and Reveals Her Past; House
    01:23:06.000 : en:Pubert Makes It to the Tower in Time; House
    01:24:32.000 : en:Wednesday Asks Uncle Fester about Debbie; Foyer
    01:25:44.000 : en:The Addams Celebrate Pubert's Birthday; Addams' Estate
    01:28:04.000 : en:End Credits
    Скриншоты


    Скачать Addams.Family.Values.1080p.mkv.torrent

    просмотры: 8

    Post Comment