Зарубежные фильмы Комедия

Кошачий глаз / Cat’s Eye (1985) BDRemux 1080p | P, P2, A

Информация о фильме
Название: Кошачий глаз
Оригинальное название: Cat's Eye
Год выпуска: 1985
Жанр: Ужасы, триллер, комедия, экранизация
Режиссер: Льюис Тиг
В ролях: Дрю Бэрримор, Джеймс Вудс, Алан Кинг, Кеннет МакМиллан, Роберт Хэйс, Кэнди Кларк, Джеймс Нафтон, Тони Мунафо, Корт Миллер, Расселл Хортон, Патриция Бенсон, Мэри Д’Арси, Джеймс Ребхорн, Джек Диллон, Сьюзэн Хоуз, Шелли Берч, Сэл Ричардс, Джесси Доран, Патриция Кэлембер, Майк Старр, Чарльз С. Даттон, Фрэнк Уэлкер, Тим Парати

О фильме:
Фильм объединяет в себе три новеллы — две из них из сборника «Ночная смена»: «Корпорация «Бросайте курить» и «Карниз». Третья — объединяющая новелла «Генерал» написана специально для фильма. Главным связующим звеном фильма является бездомный кот, пытающийся спасти маленькую девочку от неизвестной опасности.

Страна: США
Студия: Dino De Laurentiis Productions
Продолжительность: 01:34:39
Перевод: профессиональный (многоголосый закадровый), профессиональный (двухголосый, закадровый), авторский (одноголосый, закадровый)
Субтитры: русские, английские

Файл
Формат: MKV
Качество: BDRemux 1080p
Видео: MPEG-4 AVC Video / 1920х1080 / 37,6 Mbps / 23,976 fps
Звук:
Аудио 01: Русский, 192 Кбит/сек, 48,0 КГц, 16 бит, 2 канала, AC-3 — Профессиональный (многоголосый закадровый) R5
Аудио 02: Русский, 192 Кбит/сек, 48,0 КГц, 16 бит, 2 канала, AC-3 — Профессиональный (двухголосый закадровый) CP-Digital
Аудио 03: Русский, 192 Кбит/сек, 48,0 КГц, 16 бит, 2 канала, AC-3 — Профессиональный (двухголосый закадровый) НТВ+
Аудио 04: Русский, 192 Кбит/сек, 48,0 КГц, 16 бит, 2 канала, AC-3 — Авторский (одноголосый закадровый) Андрей Гаврилов
Аудио 05: Русский, 192 Кбит/сек, 48,0 КГц, 16 бит, 2 канала, AC-3 — Авторский (одноголосый закадровый) Леонид Володарский
Аудио 06: Русский, 192 Кбит/сек, 48,0 КГц, 16 бит, 2 канала, AC-3 — Авторский (одноголосый закадровый) Юрий Сербин
Аудио 07: Русский, 192 Кбит/сек, 48,0 КГц, 16 бит, 2 канала, AC-3 — Авторский (одноголосый закадровый) Василий Горчаков
Аудио 08: Русский, 192 Кбит/сек, 48,0 КГц, 16 бит, 2 канала, AC-3 — Авторский (одноголосый закадровый) Юрий Товбин
Аудио 09: Русский, 192 Кбит/сек, 48,0 КГц, 16 бит, 2 канала, AC-3 — Авторский (одноголосый закадровый) Виктор Махонько
Аудио 10: English, 448 Кбит/сек, 48,0 КГц, 16 бит, 2 канала, AC-3 — Оригинал

MediaInfo
Format : Matroska
Format version : Version 2
File size : 26.3 GiB
Duration : 1 h 34 min
Overall bit rate mode : Variable
Overall bit rate : 39.8 Mb/s
Movie name : Cat's Eye (1985) BDRemux 1080p
Encoded date : UTC 2017-11-12 17:04:44
Writing application : mkvmerge v4.9.1 ('Ich will') сборка от Jul 11 2011 23:53:15
Writing library : libebml v1.2.1 + libmatroska v1.1.1

Video
ID : 1
Format : AVC
Format/Info : Advanced Video Codec
Format profile : [email protected]
Format settings, CABAC : Yes
Format settings, RefFrames : 3 frames
Codec ID : V_MPEG4/ISO/AVC
Duration : 1 h 34 min
Bit rate mode : Variable
Bit rate : 36.8 Mb/s
Maximum bit rate : 38.0 Mb/s
Width : 1 920 pixels
Height : 1 080 pixels
Display aspect ratio : 16:9
Frame rate mode : Constant
Frame rate : 23.976 (24000/1001) FPS
Standard : NTSC
Color space : YUV
Chroma subsampling : 4:2:0
Bit depth : 8 bits
Scan type : Progressive
Bits/(Pixel*Frame) : 0.740
Stream size : 24.3 GiB (93%)
Title : Кошачий Глаз
Writing library : x264pro — Adobe CS Exporter Plug-in
Encoding settings : cabac=1 / ref=4 / deblock=1:-2:-2 / analyse=0x3:0x113 / me=umh / subme=8 / psy=1 / psy_rd=1.00:0.25 / mixed_ref=1 / me_range=16 / chroma_me=1 / trellis=1 / 8x8dct=1 / cqm=0 / deadzone=6,6 / fast_pskip=1 / chroma_qp_offset=-4 / threads=12 / lookahead_threads=2 / sliced_threads=0 / slices=4 / nr=0 / decimate=0 / interlaced=0 / bluray_compat=1 / constrained_intra=0 / bframes=3 / b_pyramid=1 / b_adapt=2 / b_bias=0 / direct=3 / weightb=1 / open_gop=0 / weightp=1 / keyint=24 / keyint_min=1 / scenecut=40 / intra_refresh=0 / rc_lookahead=24 / rc=crf / mbtree=1 / crf=1.0 / qcomp=0.80 / qpmin=0 / qpmax=69 / qpstep=4 / vbv_maxrate=38000 / vbv_bufsize=30000 / crf_max=0.0 / nal_hrd=vbr / ip_ratio=1.10 / aq=1:0.50
Language : English
Default : Yes
Forced : No
Color range : Limited
Color primaries : BT.709
Transfer characteristics : BT.709
Matrix coefficients : BT.709

Audio #1
ID : 2
Format : AC-3
Format/Info : Audio Coding 3
Format settings, Endianness : Big
Codec ID : A_AC3
Duration : 1 h 34 min
Bit rate mode : Constant
Bit rate : 192 kb/s
Channel(s) : 2 channels
Channel positions : Front: L R
Sampling rate : 48.0 kHz
Frame rate : 31.250 FPS (1536 SPF)
Bit depth : 16 bits
Compression mode : Lossy
Stream size : 130 MiB (0%)
Title : Профессиональный (многоголосый закадровый) — R5
Language : Russian
Service kind : Complete Main
Default : Yes
Forced : No

Audio #2
ID : 3
Format : AC-3
Format/Info : Audio Coding 3
Format settings, Endianness : Big
Codec ID : A_AC3
Duration : 1 h 34 min
Bit rate mode : Constant
Bit rate : 192 kb/s
Channel(s) : 2 channels
Channel positions : Front: L R
Sampling rate : 48.0 kHz
Frame rate : 31.250 FPS (1536 SPF)
Bit depth : 16 bits
Compression mode : Lossy
Stream size : 130 MiB (0%)
Title : Профессиональный (двухголосый закадровый) — CP-Digital
Language : Russian
Service kind : Complete Main
Default : No
Forced : No

Audio #3
ID : 4
Format : AC-3
Format/Info : Audio Coding 3
Format settings, Endianness : Big
Codec ID : A_AC3
Duration : 1 h 34 min
Bit rate mode : Constant
Bit rate : 192 kb/s
Channel(s) : 2 channels
Channel positions : Front: L R
Sampling rate : 48.0 kHz
Frame rate : 31.250 FPS (1536 SPF)
Bit depth : 16 bits
Compression mode : Lossy
Stream size : 130 MiB (0%)
Title : Профессиональный (двухголосый закадровый) — НТВ+
Language : Russian
Service kind : Complete Main
Default : No
Forced : No

Audio #4
ID : 5
Format : AC-3
Format/Info : Audio Coding 3
Format settings, Endianness : Big
Codec ID : A_AC3
Duration : 1 h 34 min
Bit rate mode : Constant
Bit rate : 192 kb/s
Channel(s) : 2 channels
Channel positions : Front: L R
Sampling rate : 48.0 kHz
Frame rate : 31.250 FPS (1536 SPF)
Bit depth : 16 bits
Compression mode : Lossy
Stream size : 130 MiB (0%)
Title : Авторский (одноголосый закадровый) — Андрей Гаврилов
Language : Russian
Service kind : Complete Main
Default : No
Forced : No

Audio #5
ID : 6
Format : AC-3
Format/Info : Audio Coding 3
Format settings, Endianness : Big
Codec ID : A_AC3
Duration : 1 h 34 min
Bit rate mode : Constant
Bit rate : 192 kb/s
Channel(s) : 2 channels
Channel positions : Front: L R
Sampling rate : 48.0 kHz
Frame rate : 31.250 FPS (1536 SPF)
Bit depth : 16 bits
Compression mode : Lossy
Stream size : 130 MiB (0%)
Title : Авторский (одноголосый закадровый) — Леонид Володарский
Language : Russian
Service kind : Complete Main
Default : No
Forced : No

Audio #6
ID : 7
Format : AC-3
Format/Info : Audio Coding 3
Format settings, Endianness : Big
Codec ID : A_AC3
Duration : 1 h 34 min
Bit rate mode : Constant
Bit rate : 192 kb/s
Channel(s) : 2 channels
Channel positions : Front: L R
Sampling rate : 48.0 kHz
Frame rate : 31.250 FPS (1536 SPF)
Bit depth : 16 bits
Compression mode : Lossy
Stream size : 130 MiB (0%)
Title : Авторский (одноголосый закадровый) — Юрий Сербин
Language : Russian
Service kind : Complete Main
Default : No
Forced : No

Audio #7
ID : 8
Format : AC-3
Format/Info : Audio Coding 3
Format settings, Endianness : Big
Codec ID : A_AC3
Duration : 1 h 34 min
Bit rate mode : Constant
Bit rate : 192 kb/s
Channel(s) : 2 channels
Channel positions : Front: L R
Sampling rate : 48.0 kHz
Frame rate : 31.250 FPS (1536 SPF)
Bit depth : 16 bits
Compression mode : Lossy
Stream size : 130 MiB (0%)
Title : Авторский (одноголосый закадровый) — Василий Горчаков
Language : Russian
Service kind : Complete Main
Default : No
Forced : No

Audio #8
ID : 9
Format : AC-3
Format/Info : Audio Coding 3
Format settings, Endianness : Big
Codec ID : A_AC3
Duration : 1 h 34 min
Bit rate mode : Constant
Bit rate : 192 kb/s
Channel(s) : 2 channels
Channel positions : Front: L R
Sampling rate : 48.0 kHz
Frame rate : 31.250 FPS (1536 SPF)
Bit depth : 16 bits
Compression mode : Lossy
Stream size : 130 MiB (0%)
Title : Авторский (одноголосый закадровый) — Юрий Товбин
Language : Russian
Service kind : Complete Main
Default : No
Forced : No

Audio #9
ID : 10
Format : AC-3
Format/Info : Audio Coding 3
Format settings, Endianness : Big
Codec ID : A_AC3
Duration : 1 h 34 min
Bit rate mode : Constant
Bit rate : 192 kb/s
Channel(s) : 2 channels
Channel positions : Front: L R
Sampling rate : 48.0 kHz
Frame rate : 31.250 FPS (1536 SPF)
Bit depth : 16 bits
Compression mode : Lossy
Stream size : 130 MiB (0%)
Title : Авторский (одноголосый закадровый) — Виктор Махонько
Language : Russian
Service kind : Complete Main
Default : No
Forced : No

Audio #10
ID : 11
Format : AC-3
Format/Info : Audio Coding 3
Format settings, Endianness : Big
Codec ID : A_AC3
Duration : 1 h 34 min
Bit rate mode : Constant
Bit rate : 448 kb/s
Channel(s) : 2 channels
Channel positions : Front: L R
Sampling rate : 48.0 kHz
Frame rate : 31.250 FPS (1536 SPF)
Bit depth : 16 bits
Compression mode : Lossy
Stream size : 303 MiB (1%)
Title : English (Оригинал)
Language : English
Service kind : Complete Main
Default : No
Forced : No

Text #1
ID : 12
Format : UTF-8
Codec ID : S_TEXT/UTF8
Codec ID/Info : UTF-8 Plain Text
Title : Русские
Language : Russian
Default : No
Forced : No

Text #2
ID : 13
Format : UTF-8
Codec ID : S_TEXT/UTF8
Codec ID/Info : UTF-8 Plain Text
Title : English
Language : English
Default : No
Forced : No

Menu
00:00:00.000 : en:Chapter 1
00:05:35.335 : en:Chapter 2
00:12:42.136 : en:Chapter 3
00:20:21.303 : en:Chapter 4
00:29:55.585 : en:Chapter 5
00:35:21.994 : en:Chapter 6
00:40:10.324 : en:Chapter 7
00:44:10.356 : en:Chapter 8
00:48:19.730 : en:Chapter 9
00:56:43.691 : en:Chapter 10
01:01:18.591 : en:Chapter 11
01:07:11.402 : en:Chapter 12
01:15:09.796 : en:Chapter 13
01:18:51.309 : en:Chapter 14
01:22:31.321 : en:Chapter 15
01:31:56.302 : en:Chapter 16


Скачать Koshachij_glaz_1985_BDRemux_1080p.mkv.torrent

просмотры: 2

Post Comment