Биография Зарубежные фильмы

Лжец, Великий и Ужасный / The Wizard of Lies (2017) HDTV 1080i | P



Информация о фильме
Жанр: Драма, Криминал, Биография
Режиссер: Барри Левинсон
Продюсер: Джозеф Е. Иберти, Роберт Де Ниро, Эми Херман
Актеры: Мишель Пфайффер, Роберт Де Ниро, Хэнк Азария, Кристен Коннолли, Алессандро Нивола, Келли АуКойн, Нэйтан Дарроу, Лили Рэйб, Майкл А. Гурджиан, Кэтрин Нардуччи

Описание:
История Берни Мэдоффа — бизнесмена, который построил крупнейшую в мире финансовую пирамиду и замаскировал её под инвестиционный фонд. Мэдофф был приговорен к 150 годам тюремного заключения, а его незаконная деятельность обернулась катастрофой для всей семьи.

Производство: США / Home Box Office (HBO), Tribeca Productions
Продолжительность: 02:07:04
Перевод: Многоголосый закадровый, профессиональный (Novamedia)
Субтитры: Отсутствуют

Файл
Качество видео: HDTV 1080i
Видео: AVC/H.264, 1920×1080, ~6794 Kbps
Аудио #1: MP2, 2 ch, 48,0 kHz, 192 kbps | Русский MVO
Аудио #2: MP2, 2 ch, 48,0 kHz, 192 kbps | Eng (оригинал)
Аудио #3: АС3, 6 ch, 48,0 kHz, 384 kbps | Русский MVO

Возраст: 12+ (зрителям, достигшим 12 лет)
Рейтинг MPAA: PG-13 (детям до 13 лет просмотр нежелателен)
Дата мировой премьеры: 20.05.2017
Дата российской премьеры: 21.05.2017



Mediainfo:
Общее
Идентификатор : 16 (0x10)
Полное имя : The Wizard of Lies_HD.ts
Формат : MPEG-TS
Размер файла : 7,07 Гбайт
Продолжительность : 2 ч. 7 м.
Режим общего битрейта : Переменный
Общий поток : 7963 Кбит/сек

Видео
Идентификатор : 1812 (0x714)
Идентификатор меню : 812 (0x32C)
Формат : AVC
Формат/Информация : Advanced Video Codec
Профиль формата : [email protected]
Настройки формата : CABAC / 4 Ref Frames
Параметр CABAC формата : Да
Параметр RefFrames формата : 4 кадра
Идентификатор кодека : 27
Продолжительность : 2 ч. 7 м.
Битрейт : 6794 Кбит/сек
Ширина : 1920 пикселей
Высота : 1080 пикселей
Соотношение сторон : 16:9
Частота кадров : 25,000 кадров/сек
Стандарт вещания : PAL
Цветовое пространство : YUV
Субдискретизация насыщенности : 4:2:0
Битовая глубина : 8 бит
Тип развёртки : MBAFF
Метод сохранения типа развёртки : Чередующиеся поля
Порядок развёртки : Верхнее поле первое
Бит/(Пиксели*Кадры) : 0.131
Размер потока : 6,03 Гбайт (85%)
Цветовой диапазон : Limited
Основные цвета : BT.709
Характеристики трансфера : BT.709
Коэффициенты матрицы : BT.709

Аудио #1
Идентификатор : 2812 (0xAFC)
Идентификатор меню : 812 (0x32C)
Формат : MPEG Audio
Версия формата : Version 1
Профиль формата : Layer 2
Идентификатор кодека : 4
Продолжительность : 2 ч. 7 м.
Вид битрейта : Постоянный
Битрейт : 192 Кбит/сек
Каналы : 2 канала
Частота : 48,0 КГц
Метод сжатия : С потерями
Задержка видео : 50 мс.
Размер потока : 174 Мбайт (2%)
Язык : std
Язык, дополнительно : Clean effects

Аудио #2
Идентификатор : 3812 (0xEE4)
Идентификатор меню : 812 (0x32C)
Формат : MPEG Audio
Версия формата : Version 1
Профиль формата : Layer 2
Идентификатор кодека : 4
Продолжительность : 2 ч. 7 м.
Вид битрейта : Постоянный
Битрейт : 192 Кбит/сек
Каналы : 2 канала
Частота : 48,0 КГц
Метод сжатия : С потерями
Задержка видео : 50 мс.
Размер потока : 174 Мбайт (2%)
Язык : std
Язык, дополнительно : Clean effects

Аудио #3
Идентификатор : 4812 (0x12CC)
Идентификатор меню : 812 (0x32C)
Формат : AC-3
Формат/Информация : Audio Coding 3
Параметр Endianness формата : Big
Идентификатор кодека : 6
Продолжительность : 2 ч. 7 м.
Вид битрейта : Постоянный
Битрейт : 384 Кбит/сек
Каналы : 6 каналов
Расположение каналов : Front: L C R, Side: L R, LFE
Частота : 48,0 КГц
Частота кадров : 31,250 кадров/сек (1536 SPF)
Битовая глубина : 16 бит
Метод сжатия : С потерями
Задержка видео : 158 мс.
Размер потока : 349 Мбайт (5%)
Язык : std
Язык, дополнительно : Clean effects
ServiceKind/Str.ing : Complete Main

Прочее #1
Идентификатор : 63 (0x3F)-100
Идентификатор меню : 812 (0x32C)
Формат : Teletext

Прочее #2
Идентификатор : 63 (0x3F)-888
Идентификатор меню : 812 (0x32C)
Формат : Teletext
Язык, дополнительно : Additional information page
Скриншоты




Скачать The_Wizard_of_Lies_HD.ts.torrent

просмотры: 5

Post Comment