Зарубежные фильмы Комедия

Ровно в 3 часа / Three O’Clock High (1987) BDRip 1080p от MediaClub | P

Информация о фильме
Название: Ровно в 3 часа
Оригинальное название: Three O'Clock High
Год выхода: 1987
Жанр: Комедия
Режиссер: Фил Джоану
В ролях: Кэйси Семашко, Энн Райан, Ричард Тайсон, Стэйси Глик, Джонатан Уайз, Митч Пиледжи, Роберт Аписа, Э. Кэтерин Керр, Джон Ротмен, Джеффри Тэмбор, Филип Бэйкер Холл, Джон П. Райан, Лиза Морроу, Скотт Тайлер, Пол Фиг, Гай Мэсси, Терон Рид, Майк Джолли, Чарльз Макколей, Кэйтлин О’Хини, Вивиан Браун, Брайан Эндрюс, Стерлинг Э. Гарднер, Ширли Столер, Элис Нанн, Брук Стивенс, Майкл Алекс, Майкл Альварез, Джон Амадор, Джофф Беннетт, Стэнтон Дэвис, Джеффри Дуглас, Энтони Годфри, Диан Гандерсон, Ярдли Смит, Адам Джей Садовски, Брук Монтгомери, Дэвид Майкл Тейлор, Том Тейлор, Ховард Ф. Флинн, Джэми Шуман, Байрон Дженсен, Джон Кендрик, Трэйси Льюис

О фильме:
Старшеклассник Джерри Митчел опаздывает на занятия. Он еще не знает, что в школе появился опасный новичок — злобный и агрессивный Бадди Ревелл, громила и хулиган. Знакомство мальчишек заканчивается не самым приятным образом: Бадди вызывает Джерри на поединок, который должен состояться ровно в три часа. Джерри в панике: драка может закончиться для него весьма печально, ведь соперник на голову выше и значительно сильнее. И, хотя стрелки часов неумолимо приближают роковой час школьной дуэли, Джерри не теряет надежды найти способ избежать конфронтации…

Страна: США
Студия: Universal Pictures
Продолжительность: 01:29:41
Перевод: Профессиональный многоголосый закадровый

Файл
Кодек: h.264
Качество: BDRip 1080p
Видео: MPEG-4 AVC, 14605 Кбит/с, 1920×1040, 23,976 кадр/с
Звук:
Русский (AC3, 6 ch, 448 Кбит/с) / Профессиональный многоголосый
Английский (DTS, 2 ch, 1509 Кбит/с)
Субтитры: Нет

Семпл

MI
General
Unique ID : 179063856219936766947622379902768970373 (0x86B671BB5C4291CDA04913B8D58EFA85)
Complete name : D:uTorrentRovno.v.3.chasa.1987.BDRip.1080p.MediaClub.mkv
Format : Matroska
Format version : Version 4 / Version 2
File size : 10.4 GiB
Duration : 1 h 29 min
Overall bit rate : 16.6 Mb/s
Encoded date : UTC 2017-11-10 18:00:39 / UTC 2017-11-09T23:51:59Z
Writing application : mkvmerge v17.0.0 ('Be Ur Friend') 64-bit
Writing library : libebml v1.3.5 + libmatroska v1.4.8 / Lavf57.7.2

Video
ID : 1
Format : AVC
Format/Info : Advanced Video Codec
Format profile : [email protected]
Format settings : CABAC / 4 Ref Frames
Format settings, CABAC : Yes
Format settings, RefFrames : 4 frames
Codec ID : V_MPEG4/ISO/AVC
Duration : 1 h 29 min
Bit rate : 14.6 Mb/s
Width : 1 920 pixels
Height : 1 040 pixels
Display aspect ratio : 1.85:1
Frame rate mode : Constant
Frame rate : 23.976 (24000/1001) FPS
Color space : YUV
Chroma subsampling : 4:2:0
Bit depth : 8 bits
Scan type : Progressive
Bits/(Pixel*Frame) : 0.305
Stream size : 8.94 GiB (86%)
Title : BDRip by Silverok
Writing library : x264 core 148 r2708 86b7198
Encoding settings : cabac=1 / ref=4 / deblock=1:-3:-3 / analyse=0x3:0x113 / me=umh / subme=11 / psy=1 / psy_rd=1.00:0.15 / mixed_ref=1 / me_range=32 / chroma_me=1 / trellis=2 / 8x8dct=1 / cqm=0 / deadzone=21,11 / fast_pskip=1 / chroma_qp_offset=-3 / threads=12 / lookahead_threads=1 / sliced_threads=0 / nr=0 / decimate=0 / interlaced=0 / bluray_compat=0 / constrained_intra=0 / bframes=16 / b_pyramid=2 / b_adapt=1 / b_bias=0 / direct=1 / weightb=1 / open_gop=0 / weightp=2 / keyint=240 / keyint_min=24 / scenecut=40 / intra_refresh=0 / rc_lookahead=40 / rc=2pass / mbtree=1 / bitrate=14605 / ratetol=1.0 / qcomp=0.60 / qpmin=0 / qpmax=69 / qpstep=4 / cplxblur=20.0 / qblur=0.5 / vbv_maxrate=62500 / vbv_bufsize=78125 / nal_hrd=none / filler=0 / ip_ratio=1.40 / aq=1:1.00
Default : Yes
Forced : No
Color range : Limited
Color primaries : BT.709
Transfer characteristics : BT.709
Matrix coefficients : BT.709
Statistics Tags Issue : mkvmerge v17.0.0 ('Be Ur Friend') 64-bit 2017-11-10 18:00:39 / mkvmerge v17.0.0 ('Be Ur Friend') 64-bit 2017-11-10 18:00:39 / UTC 2017-11-09T23:51:59Z
FromStats_BitRate : 14599424
FromStats_Duration : 01:29:41.752000000
FromStats_FrameCount : 129032
FromStats_StreamSize : 9821310350

Audio #1
ID : 2
Format : AC-3
Format/Info : Audio Coding 3
Codec ID : A_AC3
Duration : 1 h 29 min
Bit rate mode : Constant
Bit rate : 448 kb/s
Channel(s) : 6 channels
Channel positions : Front: L C R, Side: L R, LFE
Sampling rate : 48.0 kHz
Frame rate : 31.250 FPS (1536 SPF)
Bit depth : 16 bits
Compression mode : Lossy
Stream size : 287 MiB (3%)
Title : Профессиональный многоголосый
Language : Russian
Service kind : Complete Main
Default : Yes
Forced : No
Statistics Tags Issue : mkvmerge v17.0.0 ('Be Ur Friend') 64-bit 2017-11-10 18:00:39 / mkvmerge v17.0.0 ('Be Ur Friend') 64-bit 2017-11-10 18:00:39 / UTC 2017-11-09T23:51:59Z
FromStats_BitRate : 448000
FromStats_Duration : 01:29:41.760000000
FromStats_FrameCount : 168180
FromStats_StreamSize : 301378560

Audio #2
ID : 3
Format : DTS
Format/Info : Digital Theater Systems
Codec ID : A_DTS
Duration : 1 h 29 min
Bit rate mode : Constant
Bit rate : 1 509 kb/s
Channel(s) : 2 channels
Channel positions : Front: L R
Sampling rate : 48.0 kHz
Frame rate : 93.750 FPS (512 SPF)
Bit depth : 24 bits
Compression mode : Lossy
Stream size : 968 MiB (9%)
Language : English
Default : No
Forced : No
Statistics Tags Issue : mkvmerge v17.0.0 ('Be Ur Friend') 64-bit 2017-11-10 18:00:39 / mkvmerge v17.0.0 ('Be Ur Friend') 64-bit 2017-11-10 18:00:39 / UTC 2017-11-09T23:51:59Z
FromStats_BitRate : 1508999
FromStats_Duration : 01:29:41.750000000
FromStats_FrameCount : 504539
FromStats_StreamSize : 1015132468

Menu
00:00:00.000 : :Chapter 1
00:07:24.110 : :Chapter 2
00:12:53.147 : :Chapter 3
00:18:35.323 : :Chapter 4
00:23:54.475 : :Chapter 5
00:30:10.767 : :Chapter 6
00:32:43.670 : :Chapter 7
00:36:21.888 : :Chapter 8
00:38:33.937 : :Chapter 9
00:41:26.526 : :Chapter 10
00:44:32.795 : :Chapter 11
00:46:41.257 : :Chapter 12
00:49:00.312 : :Chapter 13
00:52:41.158 : :Chapter 14
00:56:22.796 : :Chapter 15
00:58:24.001 : :Chapter 16
01:02:06.556 : :Chapter 17
01:04:45.757 : :Chapter 18
01:08:54.339 : :Chapter 19
01:11:12.059 : :Chapter 20
01:13:54.305 : :Chapter 21
01:21:29.385 : :Chapter 22
01:23:06.440 : :Chapter 23
01:26:59.005 : :Chapter 24

Скриншоты

Релиз от: | Silverok


Скачать Rovno.v.3.chasa.1987.BDRip.1080p.MediaClub.mkv.torrent

просмотры: 2

Post Comment