Вестерн Зарубежные фильмы

Строго на запад / Slow West (2015) BDRip 1080p | D, A | Лицензия

Информация о фильме
Название: Строго на запад
Оригинальное название: Slow West
Год выхода: 2015
Жанр: боевик, триллер, вестерн
Режиссер: Джон Маклин
В ролях: Коди Смит-МакФи, Майкл Фассбендер, Бен Мендельсон, , Хейден Фрост, Карен Писториус, , Эдвин Райт, , Эндрю Робертт

О фильме:
История авантюриста по имени Сайлас, сопровождающего в опасном путешествии вдоль всей американской границы 16-летнего паренька по имени Джей Кавендиш. Джей разыскивает девушку, в которую влюблен.

Они пересеклись случайно, одинокий волк, отбившийся от волчьей стаи и заяц, оказавшийся в волчьем логове. Он мог дать ему умереть, мог убить, но не вцепился в горло, а пошёл с ним по следу, помогая найти затаившуюся где-то любовь, провожая через поля ненависти и леса страха, твёрдо, не решив, что делать дальше с ним и с собой.

Страна: Великобритания, Новая Зеландия
Студия: New Zealand Film Commission, See-Saw Films
Продолжительность: 01:24:01
Перевод: Профессиональный (дублированный) Blu-ray RUS + Авторский (одноголосый, закадровый) М.Чадов

Релиз:

Файл
Качество: BDRip 1080p
Формат: Matroska
Видео: 1788×1080 at 23.976 fps, [email protected], ~11900 kbps avg
Aудио#1: Russian: 48 kHz, DTS, 3/2 (L,C,R,l,r) + LFE ch, ~1509 kbps avg |Дубляж, Blu-ray RUS|
Аудио#2: Russian: 48 kHz, DTS, 3/2 (L,C,R,l,r) + LFE ch, ~1509 kbps avg |Авторский, М.Чадов|
Aудио#3: English: 48 kHz, DTS, 3/2 (L,C,R,l,r) + LFE ch, ~1509 kbps avg
Субтитры: Russian, English

***Сохранены оригинальные главы как на Blu-ray.
***Перевод М.Чадова выполнен в рамках сервиса "Озвучивание". Спонсор — Kruj0k.

Знаете ли Вы, что…

  • Первоначально фильм планировали снимать на 35-мм пленку, однако в итоге сняли на «цифру».
  • Съемки фильма проходили в Твайзеле, в Новой Зеландии.
  • Это первый игровой полнометражный фильм режиссёра Джона Маклина.
  • MI
    Общее
    Уникальный идентификатор : 249351692748089354920298531020447276111 (0xBB9763A0F452E6BB8E7010AEE5D1DC4F)
    Полное имя : Slow.West.2015.1080p.BluRay.2xRus.Eng.HDCLUB.mkv
    Формат : Matroska
    Версия формата : Version 2
    Размер файла : 9,82 Гбайт
    Продолжительность : 1 ч. 24 м.
    Общий поток : 16,7 Мбит/сек
    Название фильма : Slow West (2015) — Release for HDCLUB
    Дата кодирования : UTC 2016-02-28 08:26:16
    Программа кодирования : mkvmerge v5.7.0 ('The Whirlwind') built on Jul 8 2012 20:08:51
    Библиотека кодирования : libebml v1.2.3 + libmatroska v1.3.0

    Видео
    Идентификатор : 1
    Формат : AVC
    Формат/Информация : Advanced Video Codec
    Профиль формата : [email protected]
    Параметр CABAC формата : Да
    Параметр ReFrames формата : 4 кадра
    Идентификатор кодека : V_MPEG4/ISO/AVC
    Продолжительность : 1 ч. 24 м.
    Битрейт : 11,9 Мбит/сек
    Ширина : 1788 пикселей
    Высота : 1080 пикселей
    Соотношение сторон : 5:3
    Режим частоты кадров : Постоянный
    Частота кадров : 23,976 кадра/сек
    Цветовое пространство : YUV
    Субдискретизация насыщенности : 4:2:0
    Битовая глубина : 8 бит
    Тип развёртки : Прогрессивная
    Бит/(Пиксели*Кадры) : 0.256
    Размер потока : 6,96 Гбайт (71%)
    Библиотека кодирования : x264 core 146 r2538 121396c
    Настройки программы : cabac=1 / ref=4 / deblock=1:-3:-3 / analyse=0x3:0x113 / me=umh / subme=10 / psy=1 / psy_rd=1.00:0.00 / mixed_ref=1 / me_range=24 / chroma_me=1 / trellis=2 / 8x8dct=1 / cqm=0 / deadzone=21,11 / fast_pskip=1 / chroma_qp_offset=-2 / threads=6 / lookahead_threads=1 / sliced_threads=0 / nr=0 / decimate=1 / interlaced=0 / bluray_compat=0 / constrained_intra=0 / bframes=8 / b_pyramid=2 / b_adapt=2 / b_bias=0 / direct=1 / weightb=1 / open_gop=0 / weightp=2 / keyint=250 / keyint_min=25 / scenecut=40 / intra_refresh=0 / rc_lookahead=60 / rc=crf / mbtree=0 / crf=16.0 / qcomp=0.60 / qpmin=0 / qpmax=69 / qpstep=4 / vbv_maxrate=62500 / vbv_bufsize=78125 / crf_max=0.0 / nal_hrd=none / filler=0 / ip_ratio=1.40 / pb_ratio=1.30 / aq=1:0.80
    Язык : English
    Default : Да
    Forced : Нет

    Аудио #1
    Идентификатор : 2
    Формат : DTS
    Формат/Информация : Digital Theater Systems
    Режим : 16
    Параметр Endianness формата : Big
    Идентификатор кодека : A_DTS
    Продолжительность : 1 ч. 24 м.
    Вид битрейта : Постоянный
    Битрейт : 1509 Кбит/сек
    Каналы : 6 каналов
    Расположение каналов : Front: L C R, Side: L R, LFE
    Частота : 48,0 КГц
    Битовая глубина : 24 бит
    Метод сжатия : С потерями
    Размер потока : 907 Мбайт (9%)
    Заголовок : |Дубляж, Blu-Ray RUS|
    Язык : Russian
    Default : Да
    Forced : Нет

    Аудио #2
    Идентификатор : 3
    Формат : DTS
    Формат/Информация : Digital Theater Systems
    Режим : 16
    Параметр Endianness формата : Big
    Идентификатор кодека : A_DTS
    Продолжительность : 1 ч. 24 м.
    Вид битрейта : Постоянный
    Битрейт : 1509 Кбит/сек
    Каналы : 6 каналов
    Расположение каналов : Front: L C R, Side: L R, LFE
    Частота : 48,0 КГц
    Битовая глубина : 24 бит
    Метод сжатия : С потерями
    Размер потока : 907 Мбайт (9%)
    Заголовок : |Одноголосый закадровый, М.Чадов|
    Язык : Russian
    Default : Нет
    Forced : Нет

    Аудио #3
    Идентификатор : 4
    Формат : DTS
    Формат/Информация : Digital Theater Systems
    Режим : 16
    Параметр Endianness формата : Big
    Идентификатор кодека : A_DTS
    Продолжительность : 1 ч. 24 м.
    Вид битрейта : Постоянный
    Битрейт : 1509 Кбит/сек
    Каналы : 6 каналов
    Расположение каналов : Front: L C R, Side: L R, LFE
    Частота : 48,0 КГц
    Битовая глубина : 24 бит
    Метод сжатия : С потерями
    Размер потока : 907 Мбайт (9%)
    Язык : English
    Default : Нет
    Forced : Нет

    Текст #1
    Идентификатор : 5
    Формат : UTF-8
    Идентификатор кодека : S_TEXT/UTF8
    Идентификатор кодека/Информация : UTF-8 Plain Text
    Язык : Russian
    Default : Нет
    Forced : Нет

    Текст #2
    Идентификатор : 6
    Формат : UTF-8
    Идентификатор кодека : S_TEXT/UTF8
    Идентификатор кодека/Информация : UTF-8 Plain Text
    Язык : English
    Default : Нет
    Forced : Нет

    Меню
    00:00:00.000 : en:Chapter 01
    00:04:55.128 : en:Chapter 02
    00:10:24.165 : en:Chapter 03
    00:14:35.541 : en:Chapter 04
    00:19:08.397 : en:Chapter 05
    00:25:29.236 : en:Chapter 06
    00:29:17.756 : en:Chapter 07
    00:35:17.282 : en:Chapter 08
    00:39:36.291 : en:Chapter 09
    00:45:26.641 : en:Chapter 10
    00:51:45.436 : en:Chapter 11
    00:55:14.186 : en:Chapter 12
    01:01:43.909 : en:Chapter 13
    01:07:38.596 : en:Chapter 14
    01:10:55.960 : en:Chapter 15
    01:18:29.330 : en:Chapter 16
    Скриншоты


    Скачать Slow.West.2015.1080p.mkv.torrent

    просмотры: 4

    Post Comment