Зарубежные фильмы Комедия

Перемотка / Be Kind Rewind (2008) BDRip 720p | P, A

Информация о фильме
Название: Перемотка
Оригинальное название: Be Kind Rewind
Год выхода: 2008
Жанр: комедия
Режиссер: Мишель Гондри
В ролях: Джек Блэк, Ясин Бей, Дэнни Гловер, Миа Фэрроу, Мелони Диас, Ирв Гуч, Чандлер Паркер, Эрджей Смит, Куинтон Аарон, Джио Перес

О фильме:
Мусорщик Джерри решает саботировать электростанцию, которая, по его мнению, вызывает у него жуткие головные боли. Но саботаж кончается тем, что у Джерри намагничивается мозг и он, сам того не ведая, размагничивает все видеокассеты в пункте проката, в котором работает его лучший друг Майк.

Теперь, для того, чтобы удержать единственного лояльного клиента видеопроката — умалишенную старушку Кимберли — друзья пытаются своими силами воссоздать главные фильмы из коллекции Майка, включая «Короля Льва», «Час пик», «Шофера Мисс Дэйзи», «Охотников за привидениями», «Назад в будущее» и «Робокопа».

Страна: Великобритания, Франция, США
Студия: Focus Features, New Line Cinema, Partizan Films
Продолжительность: 01:41:43
Перевод: Профессиональный (многоголосый, закадровый) R5 + Профессиональный (многоголосый, закадровый) OPT + Авторский (одноголосый, закадровый) В.Котов

Файл
Качество: BDRip 720p
Формат: Matroska
Видео: 1280×544 at 23.976 fps, [email protected], ~4076 kbps avg
Аудио#1: Russian: 48 kHz, AC3 Dolby Digital, 3/2 (L,C,R,l,r) + LFE ch, ~448 kbps avg |Многоголосый закадровый, R5|
Аудио#2: Russian: 48 kHz, AC3 Dolby Digital, 2/0 (L,R) ch, ~192 kbps avg |Многоголосый закадровый, ОРТ|
Аудио#3: Russian: 48 kHz, AC3 Dolby Digital, 3/2 (L,C,R,l,r) + LFE ch, ~448 kbps avg |Авторский, В.Котов|
Аудио#4: English: 48 kHz, AC3 Dolby Digital, 3/2 (L,C,R,l,r) + LFE ch, ~448 kbps avg
Cубтитры: Russian, English

***Сохранены оригинальные главы как на Blu-ray.
***Релиз — msltel.

Знаете ли вы, что…

  • В фильме «Кинг Конг» (2005) персонаж Джека Блэка был режиссёром, снимавшим фильм о Кинг Конге. В фильме «Перемотка» персонаж Джека Блэка снимает уже сам фильм «Кинг Конг» (точнее, его «шведскую версию»).
  • MediaInfo
    Общее
    Уникальный идентификатор : 199508846113912369529782852609254303234 (0x9618018F1ECDC4D1B1907697285B2602)
    Полное имя : Перемотка.2008.BDRip.720p by msltel.mkv
    Формат : Matroska
    Версия формата : Version 4 / Version 2
    Размер файла : 4,07 Гбайт
    Продолжительность : 1 ч. 41 м.
    Общий поток : 5726 Кбит/сек
    Название фильма : Rip by msltel
    Дата кодирования : UTC 2017-11-06 02:37:21
    Программа кодирования : mkvmerge v8.2.0 ('World of Adventure') 64bit
    Библиотека кодирования : libebml v1.3.1 + libmatroska v1.4.2

    Видео
    Идентификатор : 1
    Формат : AVC
    Формат/Информация : Advanced Video Codec
    Профиль формата : [email protected]
    Параметр CABAC формата : Да
    Параметр ReFrames формата : 9 кадров
    Идентификатор кодека : V_MPEG4/ISO/AVC
    Продолжительность : 1 ч. 41 м.
    Битрейт : 4076 Кбит/сек
    Ширина : 1280 пикселей
    Высота : 544 пикселя
    Соотношение сторон : 2,35:1
    Режим частоты кадров : Постоянный
    Частота кадров : 23,976 кадра/сек
    Цветовое пространство : YUV
    Субдискретизация насыщенности : 4:2:0
    Битовая глубина : 8 бит
    Тип развёртки : Прогрессивная
    Бит/(Пиксели*Кадры) : 0.244
    Размер потока : 2,90 Гбайт (71%)
    Библиотека кодирования : x264 core 146 r2538 121396c
    Настройки программы : cabac=1 / ref=9 / deblock=1:-3:-2 / analyse=0x3:0x113 / me=umh / subme=11 / psy=1 / psy_rd=1.00:0.15 / mixed_ref=1 / me_range=32 / chroma_me=1 / trellis=2 / 8x8dct=1 / cqm=0 / deadzone=21,11 / fast_pskip=0 / chroma_qp_offset=-3 / threads=6 / lookahead_threads=1 / sliced_threads=0 / nr=0 / decimate=1 / interlaced=0 / bluray_compat=0 / constrained_intra=0 / bframes=9 / b_pyramid=2 / b_adapt=2 / b_bias=0 / direct=1 / weightb=1 / open_gop=0 / weightp=2 / keyint=230 / keyint_min=23 / scenecut=40 / intra_refresh=0 / rc_lookahead=40 / rc=crf / mbtree=0 / crf=17.0 / qcomp=0.60 / qpmin=0 / qpmax=69 / qpstep=4 / vbv_maxrate=62500 / vbv_bufsize=78125 / crf_max=0.0 / nal_hrd=none / filler=0 / ip_ratio=1.40 / pb_ratio=1.30 / aq=1:1.00
    Язык : English
    Default : Да
    Forced : Нет

    Аудио #1
    Идентификатор : 2
    Формат : AC-3
    Формат/Информация : Audio Coding 3
    Расширение режима : CM (complete main)
    Параметр Endianness формата : Big
    Идентификатор кодека : A_AC3
    Продолжительность : 1 ч. 41 м.
    Вид битрейта : Постоянный
    Битрейт : 448 Кбит/сек
    Каналы : 6 каналов
    Расположение каналов : Front: L C R, Side: L R, LFE
    Частота : 48,0 КГц
    Битовая глубина : 16 бит
    Метод сжатия : С потерями
    Размер потока : 326 Мбайт (8%)
    Заголовок : MVO R5
    Язык : Russian
    Default : Да
    Forced : Нет

    Аудио #2
    Идентификатор : 3
    Формат : AC-3
    Формат/Информация : Audio Coding 3
    Расширение режима : CM (complete main)
    Параметр Endianness формата : Big
    Идентификатор кодека : A_AC3
    Продолжительность : 1 ч. 41 м.
    Вид битрейта : Постоянный
    Битрейт : 192 Кбит/сек
    Каналы : 2 канала
    Расположение каналов : Front: L R
    Частота : 48,0 КГц
    Битовая глубина : 16 бит
    Метод сжатия : С потерями
    Размер потока : 140 Мбайт (3%)
    Заголовок : MVO OPT
    Язык : Russian
    Default : Нет
    Forced : Нет

    Аудио #3
    Идентификатор : 4
    Формат : AC-3
    Формат/Информация : Audio Coding 3
    Расширение режима : CM (complete main)
    Параметр Endianness формата : Big
    Идентификатор кодека : A_AC3
    Продолжительность : 1 ч. 41 м.
    Вид битрейта : Постоянный
    Битрейт : 448 Кбит/сек
    Каналы : 6 каналов
    Расположение каналов : Front: L C R, Side: L R, LFE
    Частота : 48,0 КГц
    Битовая глубина : 16 бит
    Метод сжатия : С потерями
    Размер потока : 326 Мбайт (8%)
    Заголовок : Вячеслав Котов
    Язык : Russian
    Default : Нет
    Forced : Нет

    Аудио #4
    Идентификатор : 5
    Формат : AC-3
    Формат/Информация : Audio Coding 3
    Расширение режима : CM (complete main)
    Параметр Endianness формата : Big
    Идентификатор кодека : A_AC3
    Продолжительность : 1 ч. 41 м.
    Вид битрейта : Постоянный
    Битрейт : 448 Кбит/сек
    Каналы : 6 каналов
    Расположение каналов : Front: L C R, Side: L R, LFE
    Частота : 48,0 КГц
    Битовая глубина : 16 бит
    Метод сжатия : С потерями
    Размер потока : 326 Мбайт (8%)
    Заголовок : original
    Язык : English
    Default : Нет
    Forced : Нет

    Текст #1
    Идентификатор : 6
    Формат : UTF-8
    Идентификатор кодека : S_TEXT/UTF8
    Идентификатор кодека/Информация : UTF-8 Plain Text
    Заголовок : русские вариант 1
    Default : Да
    Forced : Нет

    Текст #2
    Идентификатор : 7
    Формат : UTF-8
    Идентификатор кодека : S_TEXT/UTF8
    Идентификатор кодека/Информация : UTF-8 Plain Text
    Заголовок : русские вариант 2
    Язык : Russian
    Default : Нет
    Forced : Нет

    Текст #3
    Идентификатор : 8
    Формат : UTF-8
    Идентификатор кодека : S_TEXT/UTF8
    Идентификатор кодека/Информация : UTF-8 Plain Text
    Заголовок : английские
    Язык : Russian
    Default : Нет
    Forced : Нет

    Меню
    00:00:00.000 : en:Chapter 01
    00:04:25.890 : en:Chapter 02
    00:10:30.546 : en:Chapter 03
    00:14:16.480 : en:Chapter 04
    00:23:39.292 : en:Chapter 05
    00:26:53.987 : en:Chapter 06
    00:29:46.326 : en:Chapter 07
    00:37:19.904 : en:Chapter 08
    00:41:07.047 : en:Chapter 09
    00:43:40.117 : en:Chapter 10
    00:47:06.824 : en:Chapter 11
    00:50:31.611 : en:Chapter 12
    00:52:55.172 : en:Chapter 13
    00:56:00.106 : en:Chapter 14
    00:58:20.163 : en:Chapter 15
    01:00:23.328 : en:Chapter 16
    01:06:30.277 : en:Chapter 17
    01:10:04.992 : en:Chapter 18
    01:12:09.700 : en:Chapter 19
    01:14:22.332 : en:Chapter 20
    01:17:11.209 : en:Chapter 21
    01:24:26.978 : en:Chapter 22
    01:28:15.873 : en:Chapter 23
    01:35:47.533 : en:Chapter 24
    Скриншоты


    Скачать Be.Kind.Rewind.2008.720p.mkv.torrent

    просмотры: 3

    Post Comment