Зарубежные фильмы Комедия

Собачья жизнь / Vita da cani (1950) DVDRip | P

Год выпуска: 1950
Страна: Италия
Жанр: Комедия, драма
Продолжительность: 01:39:35
Перевод:
1.Профессиональный (многоголосый, закадровый)"Пифагор" по заказу ГТРК "Культура"
2.Профессиональный (многоголосый, закадровый)] DVD?
Cубтитры: нет

Режиссер: Марио Моничелли / Mario Monicelli, Стено / Steno (Stefano Vanzina)
Сценарий: Сержимо Амедей / Sergio Amidei, Альдо Фабрици / Aldo Fabrizi, Руджеро Маккари / Ruggero Maccari, Марио Моничелли / Mario Monicelli, Нино Новарезе / Nino Novarese, Фульвио Пальмиери / Fulvio Palmieri, Стено / Steno
Оператор: Марио Бава / Mario Bava
Музыка: Нино Рота / Nino Rota
В ролях: Альдо Фабрици / Aldo Fabrizi, Джина Лоллобриджида / Gina Lollobrigida, Делия Скала / Delia Scala, Тамара Леес / Tamara Lees, Джованни Баррелла / Giovanni Barrella, Бруно Корелли / Bruno Corelli, Энцо Фурлаи-Фурланетто / Enzo Furlai-Furlanetto, Энцо Маджио / Enzo Maggio, Марчелло Мастроянни / Marcello Mastroianni, Нита Довер / Nita Dover и др.

Описание:
Нино Мартони, исполнитель комических куплетов и одновременно хозяин маленького варьете, изо всех сил пытается удержаться на плаву…

Описание #2
Послевоенная Италия. Тяжелый труд за мизерную зарплату, и жизнь в бедности – удел большинства в то время. Но такая судьба не устраивает красивую и решительную Франку (Тамара Леес). Она оставляет своего жениха Карло (Марчелло Мастрояни) – перспективного, но бедного инженера, и поступает в варьете, гастролирующее по стране. У Франки простая задача – открывать и закрывать занавес, но именно это позволяет ей быть ближе к публике в надежде, что кто-то из богатых зрителей обратит на неё внимание. Успех выступлений труппы и само её существование зависят практически от одного человека – Нино Мартони (Альдо Фабрици), который «и швец, и жнец, и на дуде игрец» – ему приходится и выступать и режиссировать, учить молодых и «разбираться со звездами», договариваться с хозяевами театров и гостиниц, иметь дело с прессой и с полицией. И все это – при практически постоянном отсутствии денег. А без денег это – «собачья жизнь». В труппе Нино Мартони выступает Вера (Делия Скала), разлученная со своим любимым из-за их принадлежности к разным социальным группам. Но благодаря случаю и Нино Мартони они получают возможность быть вместе.
В одной из поездок Нино Мартони спасает от полиции Маргариту (Джина Лоллобриджида), молодую девушку, которой предначертано стать звездой шоу-бизнеса. И, хотя их связывает усиливающаяся день ото дня взаимная симпатия, им предстоит расстаться, так как судьба жестоко заставляет сделать выбор между личным счастьем и карьерой. Наконец оправдалось и ожидание Франки – на неё обратил внимания богатый промышленник и сделал ей предложение. И хотя ради этого она и пришла в труппу и «собачья жизнь» теперь в прошлом, замужество не делает её счастливой, тем более, что вскоре она встречается со своим оставленном женихом, сделавшим успешную карьеру у её мужа.
«Собачья жизнь» – фильм оставляющий след, он запоминается замечательной игрой итальянских актеров, показывающих характеры людей, движимых силой любви – самым сильным из чувств, проявляющим в них человечность даже в условиях «собачей жизни». (Описание взято с «МостВидеоФильм»)

MediaInfo

Общее
Полное имя : D:ФільмиФільми AVIVita da cani (1950) DVDRip (2xRus, Ita).avi
Формат : AVI
Формат/Информация : Audio Video Interleave
Размер файла : 1,47 Гбайт
Продолжительность : 1 ч. 39 м.
Общий поток : 2111 Кбит/сек
Название фильма : Vita da cani (1950) DVDRip (2xRus, Ita)
Режиссёр : Maksmet
Программа кодирования : VirtualDubModRus 1.5.10.2 (build 2542/release)
Формат оригинала/Имя : Movie
Примечание : 27.10.2017

Видео
Идентификатор : 0
Формат : MPEG-4 Visual
Профиль формата : Advanced [email protected]
Параметр BVOP формата : 1
Параметр QPel формата : Нет
Параметр GMC формата : Без точки перехода
Параметр матрицы формата : Выборочная
Идентификатор кодека : XVID
Идентификатор кодека/Подсказка : XviD
Продолжительность : 1 ч. 39 м.
Битрейт : 1580 Кбит/сек
Ширина : 704 пикселя
Высота : 512 пикселей
Соотношение сторон : 1,375
Частота кадров : 25,000 кадров/сек
Цветовое пространство : YUV
Субдискретизация насыщенности : 4:2:0
Битовая глубина : 8 бит
Тип развёртки : Прогрессивная
Метод сжатия : С потерями
Бит/(Пиксели*Кадры) : 0.175
Размер потока : 1,10 Гбайт (75%)
Библиотека кодирования : XviD 1.2.1 (UTC 2008-12-04)

Аудио #1
Идентификатор : 1
Формат : AC-3
Формат/Информация : Audio Coding 3
Параметр Endianness формата : Big
Идентификатор кодека : 2000
Продолжительность : 1 ч. 39 м.
Вид битрейта : Постоянный
Битрейт : 128 Кбит/сек
Каналы : 2 канала
Расположение каналов : Front: L R
Частота : 48,0 КГц
Частота кадров : 31,250 кадров/сек (1536 SPF)
Битовая глубина : 16 бит
Метод сжатия : С потерями
Размер потока : 91,2 Мбайт (6%)
Выравнивание : Разделение по промежуткам
Продолжительность промежутка : 40 мс. (1,00 видеокадр)
Время предзагрузки промежутка : 500 мс.
ServiceKind/String : Complete Main

Аудио #2
Идентификатор : 2
Формат : AC-3
Формат/Информация : Audio Coding 3
Параметр Endianness формата : Big
Идентификатор кодека : 2000
Продолжительность : 1 ч. 39 м.
Вид битрейта : Постоянный
Битрейт : 192 Кбит/сек
Каналы : 2 канала
Расположение каналов : Front: L R
Частота : 48,0 КГц
Частота кадров : 31,250 кадров/сек (1536 SPF)
Битовая глубина : 16 бит
Метод сжатия : С потерями
Размер потока : 137 Мбайт (9%)
Выравнивание : Разделение по промежуткам
Продолжительность промежутка : 40 мс. (1,00 видеокадр)
Время предзагрузки промежутка : 500 мс.
ServiceKind/String : Complete Main

Аудио #3
Идентификатор : 3
Формат : AC-3
Формат/Информация : Audio Coding 3
Параметр Endianness формата : Big
Идентификатор кодека : 2000
Продолжительность : 1 ч. 39 м.
Вид битрейта : Постоянный
Битрейт : 192 Кбит/сек
Каналы : 2 канала
Расположение каналов : Front: L R
Частота : 48,0 КГц
Частота кадров : 31,250 кадров/сек (1536 SPF)
Битовая глубина : 16 бит
Метод сжатия : С потерями
Размер потока : 137 Мбайт (9%)
Выравнивание : Разделение по промежуткам
Продолжительность промежутка : 40 мс. (1,00 видеокадр)
Время предзагрузки промежутка : 500 мс.
ServiceKind/String : Complete Main

Качество: DVDRip Исходник
Видео кодек: XviD
Аудио кодек: AC3
Видео: 704×512 (1.38:1), 25 fps, XviD build 50 ~1578 kbps avg, 0.17 bit/pixel
Аудио:
1: Russian (Dolby AC3, 2 ch) / Audio #1: AC3, 2/0 ch, 128Kbps, Delay 0 mSec "Пифагор" по заказу ГТРК "Культура"
2: Russian (Dolby AC3, 2 ch) / Audio #2: AC3, 2/0 ch, 192Kbps, Delay 0 mSec DVD?
3: Italiano (Dolby AC3, 2 ch) / Audio #3: AC3, 2/0 ch, 192Kbps, Delay 0 mSec

Скриншоты

Релиз от:


Скачать Vita_da_cani_1950_DVDRip_2xRus_Ita.avi.torrent

просмотры: 1

Post Comment