Детский Зарубежные фильмы

Сумеречная зона / Twilight Zone: The Movie (1983) BDRip 720p | P

Информация о фильме
Название: Сумеречная зона
Оригинальное название: Twilight Zone: The Movie
Год выхода: 1983
Жанр: ужасы, фантастика, фэнтези
Режиссер: Джон Лэндис, Стивен Спилберг, Джо Данте
В ролях: Дэн Эйкройд, Альберт Брукс, Вик Морроу, Даг МакГрат, Чарльз Хэллахан, Райнер Питс, Кай Вулфф, Сью Дуган, Дебби Портер, Стивен Уильямс

О фильме:
Каждый из постановщиков снял свой сегмент для этой ленты. Лэндис предлагает страшноватый пролог и первую новеллу о злобном расисте, которого наказали самым кошмарным образом, который только можно себе вообразить.

Спилберг расскажет о невероятных чудесах омоложения, которые происходят под покровом ночи в доме для престарелых. У Данте припасена поразительная история о странном мальчике со сверхъестественными способностями.

Ну а Миллер — завершит фильм своим леденящим душу финалом!

Страна: США
Студия: Amblin Entertainment, Warner Bros. Pictures
Продолжительность: 01:41:17
Перевод: Профессиональный (многоголосый, закадровый) ?

Файл
Качество: BDRip 720p
Формат: Matroska
Видео: 1280×720 at 23.976 fps, x264, ~6148 kbps avg
Аудио#1: Russian: 48 kHz, AC3, 2/0 (L,R) ch, ~192 kbps avg |Многоголосый закадровый, ?|
Аудио#2: English: 48 kHz, AC3, 3/2 (L,C,R,l,r) + LFE ch, ~448 kbps avg
Субтитры: English

***Сохранены оригинальные главы как на Blu-ray.
***Релиз — msltel.

Знаете ли вы, что…

  • В начальной заставке, когда речь идет о другом измерении звука, зрения и фантазии, в большом глазе можно увидеть изображение Рода Стерлинга — создателя оригинального сериала.
  • Актер Вик Морроу погиб на съемках фильма из-за того, что вращающиеся вертолетные лопасти, которые во время выполнения взрыва-спецэффекта вышли из-под контроля технического персонала, на полной скорости отрезали ему голову. Во время этого прискорбного эпизода погибли так же двое актеров-детей — Мик Дин Ли (7 лет) и Рене Чен (6 лет). Это событие стало катализатором для пересмотра и изменения законодательства США в сфере детского труда и мер безопасности, применяемых на съемочных площадках.
  • MediaInfo
    Общее
    Уникальный идентификатор : 247240434852430523672953621745444187382 (0xBA00C693EB3669BF9ADFB78B10A9ECF6)
    Полное имя : Сумеречная зона. Фильм.1983.BDRip.720p by msltel.mkv
    Формат : Matroska
    Версия формата : Version 4 / Version 2
    Размер файла : 4,90 Гбайт
    Продолжительность : 1 ч. 41 м.
    Общий поток : 6926 Кбит/сек
    Название фильма : Rip by msltel
    Дата кодирования : UTC 2017-10-24 02:12:27
    Программа кодирования : mkvmerge v8.2.0 ('World of Adventure') 64bit
    Библиотека кодирования : libebml v1.3.1 + libmatroska v1.4.2

    Видео
    Идентификатор : 1
    Формат : AVC
    Формат/Информация : Advanced Video Codec
    Профиль формата : [email protected]
    Параметр CABAC формата : Да
    Параметр ReFrames формата : 9 кадров
    Идентификатор кодека : V_MPEG4/ISO/AVC
    Продолжительность : 1 ч. 41 м.
    Битрейт : 6148 Кбит/сек
    Ширина : 1280 пикселей
    Высота : 720 пикселей
    Соотношение сторон : 16:9
    Режим частоты кадров : Постоянный
    Частота кадров : 23,976 кадра/сек
    Цветовое пространство : YUV
    Субдискретизация насыщенности : 4:2:0
    Битовая глубина : 8 бит
    Тип развёртки : Прогрессивная
    Бит/(Пиксели*Кадры) : 0.278
    Размер потока : 4,35 Гбайт (89%)
    Библиотека кодирования : x264 core 146 r2538 121396c
    Настройки программы : cabac=1 / ref=9 / deblock=1:-3:-2 / analyse=0x3:0x113 / me=umh / subme=11 / psy=1 / psy_rd=1.00:0.15 / mixed_ref=1 / me_range=32 / chroma_me=1 / trellis=2 / 8x8dct=1 / cqm=0 / deadzone=21,11 / fast_pskip=0 / chroma_qp_offset=-3 / threads=6 / lookahead_threads=1 / sliced_threads=0 / nr=0 / decimate=1 / interlaced=0 / bluray_compat=0 / constrained_intra=0 / bframes=7 / b_pyramid=2 / b_adapt=2 / b_bias=0 / direct=1 / weightb=1 / open_gop=0 / weightp=2 / keyint=230 / keyint_min=23 / scenecut=40 / intra_refresh=0 / rc_lookahead=40 / rc=crf / mbtree=0 / crf=18.0 / qcomp=0.60 / qpmin=0 / qpmax=69 / qpstep=4 / vbv_maxrate=62500 / vbv_bufsize=78125 / crf_max=0.0 / nal_hrd=none / filler=0 / ip_ratio=1.40 / pb_ratio=1.30 / aq=1:1.00
    Язык : English
    Default : Да
    Forced : Нет

    Аудио #1
    Идентификатор : 2
    Формат : AC-3
    Формат/Информация : Audio Coding 3
    Расширение режима : CM (complete main)
    Параметр Endianness формата : Big
    Идентификатор кодека : A_AC3
    Продолжительность : 1 ч. 41 м.
    Вид битрейта : Постоянный
    Битрейт : 192 Кбит/сек
    Каналы : 2 канала
    Расположение каналов : Front: L R
    Частота : 48,0 КГц
    Битовая глубина : 16 бит
    Метод сжатия : С потерями
    Размер потока : 139 Мбайт (3%)
    Заголовок : MVO
    Язык : Russian
    Default : Да
    Forced : Нет

    Аудио #2
    Идентификатор : 3
    Формат : AC-3
    Формат/Информация : Audio Coding 3
    Расширение режима : CM (complete main)
    Параметр Endianness формата : Big
    Идентификатор кодека : A_AC3
    Продолжительность : 1 ч. 41 м.
    Вид битрейта : Постоянный
    Битрейт : 448 Кбит/сек
    Каналы : 6 каналов
    Расположение каналов : Front: L C R, Side: L R, LFE
    Частота : 48,0 КГц
    Битовая глубина : 16 бит
    Метод сжатия : С потерями
    Размер потока : 325 Мбайт (6%)
    Заголовок : original
    Язык : English
    Default : Нет
    Forced : Нет

    Текст
    Идентификатор : 4
    Формат : UTF-8
    Идентификатор кодека : S_TEXT/UTF8
    Идентификатор кодека/Информация : UTF-8 Plain Text
    Заголовок : английские
    Язык : English
    Default : Нет
    Forced : Нет

    Меню
    00:00:00.000 : en:00:00:00.000
    00:05:32.165 : en:00:05:32.165
    00:08:07.487 : en:00:08:07.487
    00:12:33.252 : en:00:12:33.252
    00:18:45.624 : en:00:18:45.624
    00:21:05.764 : en:00:21:05.764
    00:24:05.444 : en:00:24:05.444
    00:26:38.597 : en:00:26:38.597
    00:29:23.095 : en:00:29:23.095
    00:35:54.486 : en:00:35:54.486
    00:39:35.540 : en:00:39:35.540
    00:42:30.214 : en:00:42:30.214
    00:47:34.685 : en:00:47:34.685
    00:50:01.999 : en:00:50:01.999
    00:54:30.267 : en:00:54:30.267
    00:58:11.154 : en:00:58:11.154
    01:01:12.669 : en:01:01:12.669
    01:03:48.158 : en:01:03:48.158
    01:07:18.201 : en:01:07:18.201
    01:09:43.179 : en:01:09:43.179
    01:13:43.419 : en:01:13:43.419
    01:17:59.174 : en:01:17:59.174
    01:23:46.688 : en:01:23:46.688
    01:26:44.366 : en:01:26:44.366
    01:31:04.125 : en:01:31:04.125
    01:33:16.257 : en:01:33:16.257
    01:35:26.888 : en:01:35:26.888
    Скриншоты


    Скачать Twilight.Zone.The.Movie.1983.720p.mkv.torrent

    просмотры: 2

    Post Comment