Детектив Зарубежные фильмы

Основной инстинкт / Basic Instinct (1992) BDRip 1080p | EUR | P, P2, A


Название: Основной инстинкт
Оригинальное название: Basic Instinct
Год выхода: 1992
Страна: Франция, США
Студия: Carolco Pictures, Canal+
Продолжительность: 02:08:12
Жанр: триллер, драма, детектив

Режиссер: Пол Верховен
В ролях: Майкл Дуглас, Шэрон Стоун, Джордж Дзундза, Джинн Трипплхорн, Дэнис Арндт, Лейлани Сарелл, Брюс А. Янг, Челси Росс, Дороти Мэлоун, Уэйн Найт, …

Перевод:
— Профессиональный (многоголосый, закадровый) РТР
— Профессиональный (двухголосый, закадровый) Премьер Видео Фильм
— Профессиональный (двухголосый, закадровый) Селена Интернешнл по заказу ОРТ
— Профессиональный (двухголосый, закадровый) R5 от CP Digital
— Авторский (одноголосый, закадровый) Сербин Юрий Владимирович
— Авторский (одноголосый, закадровый) Гаврилов Андрей Юрьевич
— Авторский (одноголосый, закадровый) Матвеев Алексей
— Субтитры

О фильме: Детектив Ник Каррен ведет расследование по делу об извращенном убийстве на сексуальной почве. Подозрение падает на подругу убитого Кэтрин — писательницу, автора шокирующих романов, которая в своей последней книге подробно описала абсолютно аналогичное преступление.
Но обворожительная, неимоверно сексуальная писательница, обладает удивительной способностью манипулировать мужчинами, пробудив в них один из самых основных инстинктов…

Кодек: x264
Качество: BDRip 1080p
Видео: 1912×816, 12000 kbps, 23,976 fps
Аудио #1: AC-3, 6 ch, 448 kbps (Rus) — MVO РТР
Аудио #2: AC-3, 2 ch, 192 kbps (Rus) — DVO Премьер Видео Фильм
Аудио #3: AC-3, 2 ch, 192 kbps (Rus) — DVO Селена Интернешнл по заказу ОРТ
Аудио #4: AC-3, 6 ch, 448 kbps (Rus) — DVO CP Digital
Аудио #5: AC-3, 6 ch, 448 kbps (Rus) — AVO Сербин Юрий Владимирович
Аудио #6: AC-3, 6 ch, 448 kbps (Rus) — AVO Гаврилов Андрей Юрьевич
Аудио #7: AC-3, 6 ch, 448 kbps (Rus) — AVO Матвеев Алексей (Doctor Joker)
Аудио #8: DTS, 6 ch, 1509 kbps (Eng)
Субтитры: Русские, Английские

Дополнительная информация
За исходник (Основной инстинкт / Basic Instinct (1992) Blu-ray EUR 1080p VC-1 DTS-HD 5.1) спасибо — Аноним
Европейское издание в некоторых моментах выигрывает у американского, а в некоторых проигрывает. Очень всё тут не однозначно.

РТР — текст читали: Анна Каменкова, Всеволод Кузнецов и Никита Прозоровский;
Премьер Видео Фильм — текст читали: Наталья Гурзо и Андрей Ярославцев;
Селена Интернешнл — текст читали: Анна Каменкова и Александр Новиков.
CP Digital — текст читали: Ольга Гаспарова и Александр Рахленко

Канал РТР представил фильм в 2001 году. Позже фильм был показан с этой же озвучкой на Ren TV, Че и НТВ.
Почти везде перевод представляют как НТВ. Что на самом деле не так.
У НТВ есть и свой перевод. Но дорога с ним собрана (по слухам) с двух VHS и вставок оригинала.
Качество звука не позволило мне использовать эту дорогу.
Текст там читали: Елена Соловьёва (Стоун), Дмитрий Полонский (Дуглас и половина мужчин), Марина Тарасова и Александр Белый.

В контейнере восемь дорожек, потому что многим телевизорам больше не прожевать.
Смотреть надо с Матвеевым. Там перевод MartinaG наиболее соответствует действительности.

Сравниваем с исходником:

MediaInfo

x264 [info]: frame I:1009 Avg QP:15.48 size:220488
x264 [info]: frame P:42405 Avg QP:17.67 size:102085
x264 [info]: frame B:141027 Avg QP:19.54 size: 49539
x264 [info]: consecutive B-frames: 1.0% 2.9% 3.3% 54.2% 6.5% 28.0% 0.8% 2.9% 0.0% 0.1% 0.0% 0.1% 0.0%

Общее
Уникальный идентификатор : 254634403637440740114291522268496038064 (0xBF90CD6276252134804C7E4E3ADA88B0)
Полное имя : Основной инстинкт (Basic Instinct) 1992 BDRip 1080р.mkv
Формат : Matroska
Версия формата : Version 2
Размер файла : 14,5 Гбайт
Продолжительность : 2 ч. 8 м.
Общий поток : 16,1 Мбит/сек
Дата кодирования : UTC 2017-10-05 05:11:29
Программа кодирования : mkvmerge v4.0.0 ('The Stars were mine') сборка от Jun 6 2010 16:18:42
Библиотека кодирования : libebml v1.0.0 + libmatroska v1.0.0

Видео
Идентификатор : 1
Формат : AVC
Формат/Информация : Advanced Video Codec
Профиль формата : [email protected]
Параметр CABAC формата : Да
Параметр ReFrames формата : 5 кадров
Идентификатор кодека : V_MPEG4/ISO/AVC
Продолжительность : 2 ч. 8 м.
Битрейт : 12,0 Мбит/сек
Ширина : 1912 пикселей
Высота : 816 пикселей
Соотношение сторон : 2,35:1
Режим частоты кадров : Постоянный
Частота кадров : 23,976 (24000/1001) кадра/сек
Цветовое пространство : YUV
Субдискретизация насыщенности : 4:2:0
Битовая глубина : 8 бит
Тип развёртки : Прогрессивная
Бит/(Пиксели*Кадры) : 0.321
Размер потока : 10,5 Гбайт (72%)
Библиотека кодирования : x264 core 146 r2538 121396c
Настройки программы : cabac=1 / ref=5 / deblock=1:-2:-2 / analyse=0x3:0x133 / me=umh / subme=11 / psy=1 / psy_rd=1.00:0.00 / mixed_ref=1 / me_range=32 / chroma_me=1 / trellis=2 / 8x8dct=1 / cqm=0 / deadzone=21,11 / fast_pskip=0 / chroma_qp_offset=-2 / threads=12 / lookahead_threads=2 / sliced_threads=0 / nr=0 / decimate=0 / interlaced=0 / bluray_compat=0 / constrained_intra=0 / bframes=12 / b_pyramid=2 / b_adapt=2 / b_bias=0 / direct=3 / weightb=1 / open_gop=0 / weightp=2 / keyint=240 / keyint_min=23 / scenecut=40 / intra_refresh=0 / rc=2pass / mbtree=0 / bitrate=12000 / ratetol=1.0 / qcomp=0.60 / qpmin=0 / qpmax=69 / qpstep=4 / cplxblur=20.0 / qblur=0.5 / ip_ratio=1.40 / pb_ratio=1.30 / aq=3:0.80
Язык : English
Default : Нет
Forced : Нет

Аудио #1
Идентификатор : 2
Формат : AC-3
Формат/Информация : Audio Coding 3
Расширение режима : CM (complete main)
Параметр Endianness формата : Big
Идентификатор кодека : A_AC3
Продолжительность : 2 ч. 8 м.
Вид битрейта : Постоянный
Битрейт : 448 Кбит/сек
Каналы : 6 каналов
Расположение каналов : Front: L C R, Side: L R, LFE
Частота : 48,0 КГц
Частота кадров : 31,250 кадров/сек (1536 spf)
Метод сжатия : С потерями
Размер потока : 411 Мбайт (3%)
Заголовок : MVO РТР (Анна Каменкова, Всеволод Кузнецов и Никита Прозоровский)
Язык : Russian
Default : Нет
Forced : Нет

Аудио #2
Идентификатор : 3
Формат : AC-3
Формат/Информация : Audio Coding 3
Расширение режима : CM (complete main)
Параметр Endianness формата : Big
Идентификатор кодека : A_AC3
Продолжительность : 2 ч. 8 м.
Вид битрейта : Постоянный
Битрейт : 192 Кбит/сек
Каналы : 2 канала
Расположение каналов : Front: L R
Частота : 48,0 КГц
Частота кадров : 31,250 кадров/сек (1536 spf)
Метод сжатия : С потерями
Размер потока : 176 Мбайт (1%)
Заголовок : DVO Премьер Видео Фильм (Наталья Гурзо и Андрей Ярославцев)
Язык : Russian
Default : Нет
Forced : Нет

Аудио #3
Идентификатор : 4
Формат : AC-3
Формат/Информация : Audio Coding 3
Расширение режима : CM (complete main)
Параметр Endianness формата : Big
Идентификатор кодека : A_AC3
Продолжительность : 2 ч. 8 м.
Вид битрейта : Постоянный
Битрейт : 192 Кбит/сек
Каналы : 2 канала
Расположение каналов : Front: L R
Частота : 48,0 КГц
Частота кадров : 31,250 кадров/сек (1536 spf)
Метод сжатия : С потерями
Размер потока : 176 Мбайт (1%)
Заголовок : DVO Селена Интернешнл по заказу ОРТ (Анна Каменкова и Александр Новиков)
Язык : Russian
Default : Нет
Forced : Нет

Аудио #4
Идентификатор : 5
Формат : AC-3
Формат/Информация : Audio Coding 3
Расширение режима : CM (complete main)
Параметр Endianness формата : Big
Идентификатор кодека : A_AC3
Продолжительность : 2 ч. 8 м.
Вид битрейта : Постоянный
Битрейт : 448 Кбит/сек
Каналы : 6 каналов
Расположение каналов : Front: L C R, Side: L R, LFE
Частота : 48,0 КГц
Частота кадров : 31,250 кадров/сек (1536 spf)
Метод сжатия : С потерями
Размер потока : 411 Мбайт (3%)
Заголовок : DVO CP Digital
Язык : Russian
Default : Нет
Forced : Нет

Аудио #5
Идентификатор : 6
Формат : AC-3
Формат/Информация : Audio Coding 3
Расширение режима : CM (complete main)
Параметр Endianness формата : Big
Идентификатор кодека : A_AC3
Продолжительность : 2 ч. 8 м.
Вид битрейта : Постоянный
Битрейт : 448 Кбит/сек
Каналы : 6 каналов
Расположение каналов : Front: L C R, Side: L R, LFE
Частота : 48,0 КГц
Частота кадров : 31,250 кадров/сек (1536 spf)
Метод сжатия : С потерями
Размер потока : 411 Мбайт (3%)
Заголовок : AVO Сербин Юрий Владимирович
Язык : Russian
Default : Нет
Forced : Нет

Аудио #6
Идентификатор : 7
Формат : AC-3
Формат/Информация : Audio Coding 3
Расширение режима : CM (complete main)
Параметр Endianness формата : Big
Идентификатор кодека : A_AC3
Продолжительность : 2 ч. 8 м.
Вид битрейта : Постоянный
Битрейт : 448 Кбит/сек
Каналы : 6 каналов
Расположение каналов : Front: L C R, Side: L R, LFE
Частота : 48,0 КГц
Частота кадров : 31,250 кадров/сек (1536 spf)
Метод сжатия : С потерями
Размер потока : 411 Мбайт (3%)
Заголовок : AVO Гаврилов Андрей Юрьевич
Язык : Russian
Default : Нет
Forced : Нет

Аудио #7
Идентификатор : 8
Формат : AC-3
Формат/Информация : Audio Coding 3
Расширение режима : CM (complete main)
Параметр Endianness формата : Big
Идентификатор кодека : A_AC3
Продолжительность : 2 ч. 8 м.
Вид битрейта : Постоянный
Битрейт : 448 Кбит/сек
Каналы : 6 каналов
Расположение каналов : Front: L C R, Side: L R, LFE
Частота : 48,0 КГц
Частота кадров : 31,250 кадров/сек (1536 spf)
Метод сжатия : С потерями
Размер потока : 411 Мбайт (3%)
Заголовок : AVO Матвеев Алексей (Doctor Joker)
Язык : Russian
Default : Нет
Forced : Нет

Аудио #8
Идентификатор : 9
Формат : DTS
Формат/Информация : Digital Theater Systems
Режим : 16
Параметр Endianness формата : Big
Идентификатор кодека : A_DTS
Продолжительность : 2 ч. 8 м.
Вид битрейта : Постоянный
Битрейт : 1509 Кбит/сек
Каналы : 6 каналов
Расположение каналов : Front: L C R, Side: L R, LFE
Частота : 48,0 КГц
Частота кадров : 93,750 кадра/сек (512 spf)
Битовая глубина : 16 бит
Метод сжатия : С потерями
Размер потока : 1,35 Гбайт (9%)
Язык : English
Default : Нет
Forced : Нет

Текст #1
Идентификатор : 10
Формат : UTF-8
Идентификатор кодека : S_TEXT/UTF8
Идентификатор кодека/Информация : UTF-8 Plain Text
Заголовок : BD EUR
Язык : Russian
Default : Нет
Forced : Нет

Текст #2
Идентификатор : 11
Формат : UTF-8
Идентификатор кодека : S_TEXT/UTF8
Идентификатор кодека/Информация : UTF-8 Plain Text
Заголовок : CP Digital
Язык : Russian
Default : Нет
Forced : Нет

Текст #3
Идентификатор : 12
Формат : UTF-8
Идентификатор кодека : S_TEXT/UTF8
Идентификатор кодека/Информация : UTF-8 Plain Text
Заголовок : Перевод MartinaG
Язык : Russian
Default : Нет
Forced : Нет

Текст #4
Идентификатор : 13
Формат : UTF-8
Идентификатор кодека : S_TEXT/UTF8
Идентификатор кодека/Информация : UTF-8 Plain Text
Язык : English
Default : Нет
Forced : Нет

Меню
00:00:00.000 : en:Chapter 01
00:07:20.022 : en:Chapter 02
00:13:23.219 : en:Chapter 03
00:20:58.757 : en:Chapter 04
00:30:36.960 : en:Chapter 05
00:40:02.274 : en:Chapter 06
00:45:15.838 : en:Chapter 07
00:51:30.879 : en:Chapter 08
01:02:06.723 : en:Chapter 09
01:11:33.372 : en:Chapter 10
01:20:44.089 : en:Chapter 11
01:30:36.139 : en:Chapter 12
01:34:20.905 : en:Chapter 13
01:41:35.380 : en:Chapter 14
01:48:10.358 : en:Chapter 15
01:50:19.404 : en:Chapter 16



Скачать Osnovnoj_instinkt_Basic_Instinct_1992_BDRip_108.torrent

просмотры: 10

Post Comment