Вестерн Зарубежные фильмы

Джанго освобожденный / Django Unchained (2012) BDRip 1080p

Информация о фильме
Название: Джанго освобожденный
Оригинальное название: Django Unchained
Год выхода: 2012
Жанр: драма, вестерн, приключения, комедия
Режиссер: Квентин Тарантино
В ролях: Джейми Фокс, Кристоф Вальц, Леонардо ДиКаприо, Керри Вашингтон, Сэмюэл Л. Джексон, Уолтон Гоггинс, Деннис Кристофер, Джеймс Римар, Дон Джонсон, Франко Неро

О фильме: Эксцентричный охотник за головами, также известный как «Дантист», промышляет отстрелом самых опасных преступников на Диком Западе. Работенка пыльная, и без надежного помощника ему не обойтись. Но как найти такого и желательно не очень дорогого? Беглый раб по имени Джанго — прекрасная кандидатура. Правда, у нового помощника свои мотивы — кое с чем надо разобраться…

Выпущено: Columbia Pictures
Продолжительность: 02:45:23
Перевод: Дублированный (лицензия)

Файл
Кодек: x264
Качество: BDRip (источник: Blu-ray Disc)
Видео: 1920×800 (2,40:1), 23.976 fps, 5633 kbps
Аудио #1: AC-3, 6 ch, 640 kbps (Rus)
Аудио #2: AC-3, 6 ch, 448 kbps (Eng)
Субтитры: Русские (форс,полные), Английские
Скачать: сэмпл

Скриншоты

MI
Общее
Уникальный идентификатор : 246433395245054345301242027383135595663 (0xB9655873FEC66E4FA1A8BDA8F9EAEC8F)
Полное имя : Django.Unchained.2012.BDRip.1080p.Rus.Eng.mkv
Формат : Matroska
Версия формата : Version 2
Размер файла : 7,76 Гбайт
Продолжительность : 2 ч. 45 м.
Общий поток : 6721 Кбит/сек
Название фильма : Джанго освобожденный / Django Unchained (2012)
Дата кодирования : UTC 2013-04-29 13:03:15
Программа кодирования : mkvmerge v5.8.0 ('No Sleep / Pillow') built on Sep 2 2012 15:37:04
Библиотека кодирования : libebml v1.2.3 + libmatroska v1.3.0

Видео
Идентификатор : 1
Формат : AVC
Формат/Информация : Advanced Video Codec
Профиль формата : [email protected]
Параметр CABAC формата : Да
Параметр ReFrames формата : 5 кадров
Идентификатор кодека : V_MPEG4/ISO/AVC
Продолжительность : 2 ч. 45 м.
Битрейт : 5633 Кбит/сек
Ширина : 1920 пикселей
Высота : 800 пикселей
Соотношение сторон : 2,40:1
Частота кадров : 23,976 кадра/сек
Цветовое пространство : YUV
Субдискретизация насыщенности : 4:2:0
Битовая глубина : 8 бит
Тип развёртки : Прогрессивная
Бит/(Пиксели*Кадры) : 0.153
Размер потока : 6,35 Гбайт (82%)
Заголовок : Release by AlexKa
Библиотека кодирования : x264 core 130 r2273 b3065e6
Настройки программы : cabac=1 / ref=5 / deblock=1:-3:-3 / analyse=0x3:0x133 / me=umh / subme=10 / psy=1 / psy_rd=1.00:0.00 / mixed_ref=1 / me_range=32 / chroma_me=1 / trellis=2 / 8x8dct=1 / cqm=0 / deadzone=21,11 / fast_pskip=0 / chroma_qp_offset=-2 / threads=12 / lookahead_threads=1 / sliced_threads=0 / nr=0 / decimate=0 / interlaced=0 / bluray_compat=0 / constrained_intra=0 / bframes=6 / b_pyramid=2 / b_adapt=2 / b_bias=0 / direct=3 / weightb=1 / open_gop=0 / weightp=2 / keyint=240 / keyint_min=23 / scenecut=40 / intra_refresh=0 / rc_lookahead=80 / rc=2pass / mbtree=1 / bitrate=5633 / ratetol=1.0 / qcomp=0.60 / qpmin=0 / qpmax=69 / qpstep=4 / cplxblur=20.0 / qblur=0.5 / ip_ratio=1.40 / aq=1:0.80
Язык : English

Аудио #1
Идентификатор : 2
Формат : AC-3
Формат/Информация : Audio Coding 3
Расширение режима : CM (complete main)
Идентификатор кодека : A_AC3
Продолжительность : 2 ч. 45 м.
Вид битрейта : Постоянный
Битрейт : 640 Кбит/сек
Каналы : 6 каналов
Расположение каналов : Front: L C R, Side: L R, LFE
Частота : 48,0 КГц
Битовая глубина : 16 бит
Метод сжатия : С потерями
Размер потока : 757 Мбайт (10%)
Заголовок : Rus
Язык : Russian

Аудио #2
Идентификатор : 3
Формат : AC-3
Формат/Информация : Audio Coding 3
Расширение режима : CM (complete main)
Идентификатор кодека : A_AC3
Продолжительность : 2 ч. 45 м.
Вид битрейта : Постоянный
Битрейт : 448 Кбит/сек
Каналы : 6 каналов
Расположение каналов : Front: L C R, Side: L R, LFE
Частота : 48,0 КГц
Битовая глубина : 16 бит
Метод сжатия : С потерями
Размер потока : 530 Мбайт (7%)
Заголовок : Eng
Язык : English

Текст #1
Идентификатор : 4
Формат : UTF-8
Идентификатор кодека : S_TEXT/UTF8
Идентификатор кодека/Информация : UTF-8 Plain Text
Заголовок : Rus forced
Язык : Russian

Текст #2
Идентификатор : 5
Формат : UTF-8
Идентификатор кодека : S_TEXT/UTF8
Идентификатор кодека/Информация : UTF-8 Plain Text
Заголовок : Rus
Язык : Russian

Текст #3
Идентификатор : 6
Формат : UTF-8
Идентификатор кодека : S_TEXT/UTF8
Идентификатор кодека/Информация : UTF-8 Plain Text
Заголовок : Eng
Язык : English

Меню
00:00:00.000 : en:DJANGO UNCHAINED
00:03:36.466 : en:1858 — SOMEWHERE IN TEXAS
00:12:47.934 : en:DAUGHTREY, TX
00:18:49.420 : en:SHERIFF BILL SHARP
00:26:48.273 : en:TENNESSEE
00:31:44.528 : en:"YOU MEAN YOU WANNA DRESS LIKE THAT?"
00:40:27.133 : en:IT'S A RAID
00:46:05.513 : en:THE LEGEND OF BROOMHILDA
00:52:36.862 : en:SMITTY BAGALL
00:58:12.823 : en:MISSISSIPPI
01:02:20.320 : en:ONE-EYED CHARLIE
01:12:13.496 : en:THE RIDE TO CANDIELAND
01:18:35.794 : en:THE TRACKERS
01:26:08.038 : en:CANDIELAND
01:34:49.642 : en:DR. SCHULTZ MEETS BROOMHILDA
01:40:52.380 : en:"YOU KNOWS WHAT I LIKE"
01:45:34.036 : en:ESKIMO JOE
01:50:01.094 : en:"YOU SCARIN' ME"
01:55:03.980 : en:OLD BEN
02:03:54.969 : en:"PLEASE STOP PLAYING BEETHOVEN"
02:08:14.103 : en:"BROOMHILDA VON SHAFT, CONSIDER YOURSELF A FREE WOMAN"
02:14:14.380 : en:"DJANGO, WE GOT YOUR WOMAN"
02:17:28.991 : en:CASTRATION SCENE
02:22:32.544 : en:LEQUINT DICKEY MINING COMPANY
02:26:28.530 : en:"HE WEREN'T NO SLAVE"
02:33:00.463 : en:DJANGO SAYS GOODBYE TO DR. SCHULTZ
02:35:41.999 : en:"IN THE SWEET BY AND BY"
02:41:30.931 : en:"THEY WILL CALL YOU THE FASTEST GUN IN THE SOUTH"
x264
x264 [info]: frame I:1974 Avg QP:16.03 size:230536
x264 [info]: frame P:48071 Avg QP:19.75 size: 70715
x264 [info]: frame B:187867 Avg QP:22.98 size: 16661


Скачать Django.Unchained.2012.BDRip.1080p.Rus.Eng.mkv.torrent

просмотры: 9

Post Comment